<?xml version="1.0" standalone="no"?>
<!DOCTYPE svg PUBLIC "-//W3C//DTD SVG 1.1//EN" "http://www.w3.org/Graphics/SVG/1.1/DTD/svg11.dtd" >
<svg xmlns="http://www.w3.org/2000/svg">
<metadata>Generated by IcoMoon</metadata>
<defs>
<font id="metrize" horiz-adv-x="1024">
<font-face units-per-em="1024" ascent="960" descent="-64" />
<missing-glyph horiz-adv-x="1024" />
<glyph unicode="&#x20;" horiz-adv-x="512" d="" />
<glyph unicode="&#xe900;" glyph-name="d-cube" d="M512 960c-282.782 0-512-229.218-512-512s229.218-512 512-512 512 229.218 512 512-229.218 512-512 512zM512 16c-238.594 0-432 193.406-432 432s193.406 432 432 432 432-193.406 432-432-193.406-432-432-432zM735.532 512.25l-0.218 64.282-223.938 127.468-223.376-128.532 0.156-63.656 0.468-192.312 224-127.5 223.376 128.532-0.468 191.718zM511.562 639.688l139.624-79.438-139.282-80.124-139.656 79.468 139.314 80.094zM344.688 351.782l-0.406 159.532 139.094-79.156 0.438-159.562-139.126 79.186zM540.468 272.438l-0.374 159.562 139.218 80.124 0.5-159.624-139.344-80.062z" />
<glyph unicode="&#xe901;" glyph-name="adjust" d="M512 960c-282.782 0-512-229.218-512-512s229.218-512 512-512 512 229.218 512 512-229.218 512-512 512zM512 16c-238.594 0-432 193.406-432 432s193.406 432 432 432 432-193.406 432-432-193.406-432-432-432zM512 704c-141.376 0-256-114.594-256-256 0-141.376 114.624-256 256-256 141.406 0 256 114.624 256 256 0 141.406-114.594 256-256 256zM320 448c0 105.876 96 192 192 192v-384c-96 0-192 86.124-192 192z" />
<glyph unicode="&#xe902;" glyph-name="air-plane" d="M512 960c-282.782 0-512-229.218-512-512s229.218-512 512-512 512 229.218 512 512-229.218 512-512 512zM512 16c-238.594 0-432 193.406-432 432s193.406 432 432 432 432-193.406 432-432-193.406-432-432-432zM256 704l146.282-512 146.282 102.406 109.718-102.406v170.656l109.718 102.406-512 238.938zM585.156 362.656l-194.75 187.75 194.75-153.594v-34.156z" />
<glyph unicode="&#xe903;" glyph-name="alarm-clock" d="M512 960c-282.782 0-512-229.218-512-512s229.218-512 512-512 512 229.218 512 512-229.218 512-512 512zM512 16c-238.594 0-432 193.406-432 432s193.406 432 432 432 432-193.406 432-432-193.406-432-432-432zM512 672c-123.688 0-224-100.312-224-224s100.312-224 224-224 224 100.312 224 224-100.312 224-224 224zM512 266c-100.5 0-182 81.532-182 182 0 100.5 81.5 182 182 182 100.468 0 182-81.5 182-182 0-100.468-81.532-182-182-182zM512 416c-17.688 0-32 14.312-32 32s14.312 32 32 32 32-14.312 32-32-14.312-32-32-32zM492.124 445.25l22.658 22.626 60.312-60.314-22.626-22.656zM469.938 551.094l31.062 7.688 29.438-118.688-31.062-7.688zM746 682.062c-29.25 29.312-76.75 29.312-106.062 0l106.062-106.062c29.312 29.282 29.312 76.812 0 106.062zM277.968 682c-29.282-29.25-29.282-76.75 0-106.062l106.094 106.062c-29.312 29.312-76.812 29.312-106.094 0z" />
<glyph unicode="&#xe904;" glyph-name="animal-footprint" d="M512 961c-283.334 0-513-229.666-513-513s229.666-513 513-513 513 229.666 513 513-229.666 513-513 513zM512 15.156c-239.060 0-432.844 193.784-432.844 432.844s193.784 432.844 432.844 432.844c239.060 0 432.844-193.784 432.844-432.844s-193.784-432.844-432.844-432.844zM266.96 486.762c-18.788-17.346-13.964-54.794 10.77-83.726 24.736-28.9 59.992-38.262 78.748-20.854 18.756 17.286 13.934 54.794-10.802 83.664s-59.992 38.264-78.716 20.916zM677.666 472.486c-22.012-31.25-23.388-69.040-3.1-84.446 20.258-15.342 54.514-2.628 76.494 28.65 21.98 31.186 23.358 68.946 3.1 84.382-20.26 15.374-54.544 2.568-76.494-28.586zM452.258 479.75c33.034 7.954 50.222 57.3 38.358 110.214-11.774 52.916-48.156 89.362-81.19 81.41-33.002-8.016-50.16-57.362-38.388-110.278 11.866-52.854 48.218-89.3 81.22-81.346zM618.114 671.374c-33.002 7.954-69.354-28.494-81.19-81.41s5.322-102.262 38.386-110.214c32.97-7.952 69.354 28.494 81.19 81.346 11.868 52.914-5.384 102.262-38.386 110.278zM512 434.974c-78.748 0-137.864-125.4-137.864-166.888 0-102.010 59.116 3.226 137.864 3.226 78.78 0 137.864-105.236 137.864-3.226 0 41.488-59.084 166.888-137.864 166.888z" />
<glyph unicode="&#xe905;" glyph-name="arrow-curve-left" d="M512 960c-282.782 0-512-229.218-512-512s229.218-512 512-512 512 229.218 512 512-229.218 512-512 512zM512 16c-238.594 0-432 193.406-432 432s193.406 432 432 432 432-193.406 432-432-193.406-432-432-432zM650 459.124c-84.406 54.72-219 52.876-219 52.876v96l-192-160 192-128v96c0 0 90 18 171.688-12.812 74.688-28.156 156.812-115.188 156.812-115.188s-25.094 116.344-109.5 171.124z" />
<glyph unicode="&#xe906;" glyph-name="arrow-curve-recycle" d="M512 960c-282.782 0-512-229.218-512-512s229.218-512 512-512 512 229.218 512 512-229.218 512-512 512zM512 16c-238.594 0-432 193.406-432 432s193.406 432 432 432 432-193.406 432-432-193.406-432-432-432zM559 608c0 0-117.594 1.844-202-52.876-84.406-54.78-105.25-171.124-105.25-171.124s75.75 87.032 150.438 115.188c81.688 30.812 156.812 12.812 156.812 12.812v-96l192 128-192 160v-96zM602.688 396.812c-81.688-30.812-171.688-12.812-171.688-12.812v96l-192-128 192-160v96c0 0 134.594-1.844 219 52.876 84.406 54.78 109.5 171.124 109.5 171.124s-82.124-87.032-156.812-115.188z" />
<glyph unicode="&#xe907;" glyph-name="arrow-curve-right" d="M512 960c-282.782 0-512-229.218-512-512s229.218-512 512-512 512 229.218 512 512-229.218 512-512 512zM512 16c-238.594 0-432 193.406-432 432s193.406 432 432 432 432-193.406 432-432-193.406-432-432-432zM559 512c0 0-117.594 1.844-202-52.876-84.406-54.78-105.25-171.124-105.25-171.124s75.75 87.032 150.438 115.188c81.688 30.812 156.812 12.812 156.812 12.812v-96l192 128-192 160v-96z" />
<glyph unicode="&#xe908;" glyph-name="arrow-cycle" d="M512 960c-282.782 0-512-229.218-512-512s229.218-512 512-512 512 229.218 512 512-229.218 512-512 512zM512 16c-238.594 0-432 193.406-432 432s193.406 432 432 432 432-193.406 432-432-193.406-432-432-432zM376.234 583.75c75 75 196.546 75 271.516 0l-22.624-22.624 101.844-33.938-33.97 101.844-22.624-22.656c-87.5 87.5-229.282 87.5-316.766 0-55.968-55.968-75.954-134.156-60.282-206.156l36.422-12.156c-21.844 66.624-6.454 142.748 46.484 195.686zM694.25 507.938c21.844-66.624 6.468-142.75-46.5-195.688-75-75-196.516-75-271.516 0l22.624 22.624-101.812 33.938 33.938-101.844 22.626 22.624c87.484-87.468 229.296-87.468 316.766 0 56 56 75.968 134.156 60.312 206.188l-36.438 12.158z" />
<glyph unicode="&#xe909;" glyph-name="arrow-cycling" d="M512 960c-282.782 0-512-229.218-512-512s229.218-512 512-512 512 229.218 512 512-229.218 512-512 512zM512 16c-238.594 0-432 193.406-432 432s193.406 432 432 432 432-193.406 432-432-193.406-432-432-432zM495 640v-32l96 48-96 48v-32c-64 0-140.078-41.188-179.922-103.156l12.922-34.344c31.656 62.532 103 105.5 167 105.5zM320 431h32l-48 96-48-96h32c0-64 41.172-140.062 103.156-179.938l34.344 12.938c-62.532 31.656-105.5 103-105.5 167zM495 256v32l-96-48 96-48v32c96 0 157.062 41.188 196.938 103.156l-21.438 34.344c-31.656-62.532-79.5-105.5-175.5-105.5zM632.844 627.938l-34.344-21.438c62.532-31.656 105.5-79.5 105.5-175.5h-32l48-96 48 96h-32c0 96-41.188 157.062-103.156 196.938z" />
<glyph unicode="&#xe90a;" glyph-name="arrow-down-big" d="M0 448c0-282.812 229.218-512 512-512s512 229.188 512 512c0 282.75-229.218 512-512 512s-512-229.25-512-512zM944 448c0-238.624-193.406-432-432-432s-432 193.376-432 432c0 238.562 193.406 432 432 432s432-193.438 432-432zM320 416l192-224 192 224h-96.032v288h-192v-288z" />
<glyph unicode="&#xe90b;" glyph-name="arrow-down-bold-round" d="M1024 448c0 282.784-229.216 512-512 512s-512-229.216-512-512 229.216-512 512-512 512 229.216 512 512zM80 448c0 238.592 193.408 432 432 432 238.596 0 432-193.408 432-432 0-238.596-193.404-432-432-432-238.592 0-432 193.404-432 432zM548.244 273.064l179.184 291.156c19.94 33.688 3.876 48.78-35.682 48.78h-359.536c-39.5 0-55.592-15.092-35.624-48.78l179.158-297.31c19.938-33.814 52.56-27.628 72.5 6.154z" />
<glyph unicode="&#xe90c;" glyph-name="arrow-down-bold" d="M512 960c-282.782 0-512-229.218-512-512s229.218-512 512-512 512 229.218 512 512-229.218 512-512 512zM512 16c-238.594 0-432 193.406-432 432s193.406 432 432 432 432-193.406 432-432-193.406-432-432-432zM512 235l224 384h-448z" />
<glyph unicode="&#xe90d;" glyph-name="arrow-down-light" d="M0 448c0-282.812 229.218-512 512-512s512 229.188 512 512c0 282.75-229.218 512-512 512s-512-229.25-512-512zM944 448c0-238.624-193.406-432-432-432s-432 193.376-432 432c0 238.562 193.406 432 432 432s432-193.438 432-432zM479.922 704v-396.812l-82.25 76.812-45.688-42.688 160-149.312 160.032 149.312-45.812 42.688-82.282-76.812v396.812z" />
<glyph unicode="&#xe90e;" glyph-name="arrow-down-thin" d="M0 448c0-282.782 229.188-512 512-512 282.75 0 512 229.218 512 512s-229.25 512-512 512c-282.812 0-512-229.218-512-512zM944 448c0-238.594-193.438-432-432-432-238.624 0-432 193.406-432 432s193.376 432 432 432c238.562 0 432-193.406 432-432zM297.376 546.624c-12.5-12.5-12.5-32.75 0-45.25l192-192c12.5-12.5 32.75-12.5 45.25 0l192 192c6.25 6.25 9.374 14.438 9.374 22.626s-3.124 16.376-9.376 22.624c-12.5 12.5-32.75 12.5-45.25 0l-169.374-169.374-169.376 169.376c-12.5 12.498-32.748 12.498-45.248-0.002z" />
<glyph unicode="&#xe90f;" glyph-name="arrow-down" d="M0 448c0-282.782 229.188-512 512-512 282.75 0 512 229.218 512 512s-229.25 512-512 512c-282.812 0-512-229.218-512-512zM944 448c0-238.594-193.438-432-432-432-238.624 0-432 193.406-432 432s193.376 432 432 432c238.562 0 432-193.406 432-432zM288 508l224-224 224 224-64 64-160-160-160 160z" />
<glyph unicode="&#xe910;" glyph-name="arrow-fill-down" d="M512 960c-282.782 0-512-229.218-512-512s229.218-512 512-512 512 229.218 512 512-229.218 512-512 512zM512 16c-238.594 0-432 193.406-432 432s193.406 432 432 432 432-193.406 432-432-193.406-432-432-432zM608 672h-192c-17.594 0-32-14.376-32-31.938v-287.656c0-17.532 8.968-43.188 19.938-56.938l87.312-125.156c10.938-13.75 28.938-13.75 39.938-0.062l88.782 125.282c11.030 13.718 20.030 39.344 20.030 56.874v287.656c0 17.562-14.406 31.938-32 31.938z" />
<glyph unicode="&#xe911;" glyph-name="arrow-fill-left" d="M512 960c-282.782 0-512-229.218-512-512s229.218-512 512-512 512 229.218 512 512-229.218 512-512 512zM512 16c-238.594 0-432 193.406-432 432s193.406 432 432 432 432-193.406 432-432-193.406-432-432-432zM704.062 576h-287.656c-17.532 0-43.188-8.968-56.938-19.938l-125.156-87.312c-13.75-10.938-13.75-28.938-0.062-39.938l125.282-88.782c13.718-11.030 39.344-20.030 56.874-20.030h287.656c17.562 0 31.938 14.406 31.938 32v192c0 17.594-14.376 32-31.938 32z" />
<glyph unicode="&#xe912;" glyph-name="arrow-fill-right" d="M512 960c-282.782 0-512-229.218-512-512s229.218-512 512-512 512 229.218 512 512-229.218 512-512 512zM512 16c-238.594 0-432 193.406-432 432s193.406 432 432 432 432-193.406 432-432-193.406-432-432-432zM664.468 555.968c-13.718 11.032-39.344 20.032-56.874 20.032h-287.656c-17.562 0-31.938-14.406-31.938-32v-192c0-17.594 14.376-32 31.938-32h287.656c17.532 0 43.188 8.968 56.938 19.938l125.156 87.312c13.75 10.938 13.75 28.938 0.062 39.938l-125.282 88.78z" />
<glyph unicode="&#xe913;" glyph-name="arrow-fill-up" d="M512 960c-282.782 0-512-229.218-512-512s229.218-512 512-512 512 229.218 512 512-229.218 512-512 512zM512 16c-238.594 0-432 193.406-432 432s193.406 432 432 432 432-193.406 432-432-193.406-432-432-432zM532.75 725.688c-10.938 13.75-28.938 13.75-39.938 0.062l-88.782-125.282c-11.030-13.718-20.030-39.344-20.030-56.874v-287.656c0-17.562 14.406-31.938 32-31.938h192c17.594 0 32 14.376 32 31.938v287.656c0 17.532-8.968 43.188-19.938 56.938l-87.312 125.156z" />
<glyph unicode="&#xe914;" glyph-name="arrow-left-big" d="M512 960c-282.876 0-512-229.218-512-512s229.124-512 512-512c282.75 0 512 229.218 512 512s-229.25 512-512 512zM512 16c-238.688 0-432.062 193.406-432.062 432s193.374 432 432.062 432c238.562 0 432-193.406 432-432s-193.438-432-432-432zM480 640l-224-192 224-192v95.938h288v192h-288z" />
<glyph unicode="&#xe915;" glyph-name="arrow-left-bold-round" d="M512-64c282.782 0 512 229.218 512 512s-229.218 512-512 512c-282.782 0-512-229.218-512-512s229.218-512 512-512zM512 880c238.594 0 432-193.406 432-432s-193.406-432-432-432-432 193.406-432 432 193.406 432 432 432zM315.68 411.758l291.744-179.188c33.688-19.938 49.37-3.876 49.37 35.688v359.532c0 39.5-15.682 55.594-49.37 35.624l-297.59-179.156c-33.844-19.938-27.936-52.562 5.846-72.5z" />
<glyph unicode="&#xe916;" glyph-name="arrow-left-bold" d="M512-64c282.782 0 512 229.218 512 512s-229.218 512-512 512c-282.782 0-512-229.218-512-512s229.218-512 512-512zM512 880c238.594 0 432-193.406 432-432s-193.406-432-432-432-432 193.406-432 432 193.406 432 432 432zM663 672l-384-224 384-224z" />
<glyph unicode="&#xe917;" glyph-name="arrow-left-light" d="M512 960c-282.782 0-512-229.218-512-512s229.218-512 512-512 512 229.218 512 512-229.218 512-512 512zM512 16c-238.594 0-432 193.406-432 432s193.406 432 432 432 432-193.406 432-432-193.406-432-432-432zM768 480h-396.812l76.812 82.312-42.688 45.688-149.312-160 149.312-160 42.688 45.75-76.812 82.25h396.812z" />
<glyph unicode="&#xe918;" glyph-name="arrow-left-thin" d="M512 960c-282.782 0-512-229.218-512-512s229.218-512 512-512 512 229.218 512 512-229.218 512-512 512zM512 16c-238.594 0-432 193.406-432 432s193.406 432 432 432 432-193.406 432-432-193.406-432-432-432zM610.624 662.624c-12.5 12.5-32.75 12.5-45.25 0l-192-192c-12.5-12.5-12.5-32.75 0-45.25l192-192c6.25-6.25 14.438-9.374 22.626-9.374s16.376 3.124 22.624 9.376c12.5 12.5 12.5 32.75 0 45.25l-169.374 169.374 169.376 169.376c12.498 12.5 12.498 32.748-0.002 45.248z" />
<glyph unicode="&#xe919;" glyph-name="arrow-left" d="M512 960c-282.782 0-512-229.218-512-512s229.218-512 512-512 512 229.218 512 512-229.218 512-512 512zM512 16c-238.594 0-432 193.406-432 432s193.406 432 432 432 432-193.406 432-432-193.406-432-432-432zM572 672l-224-224 224-224 64 64-160 160 160 160z" />
<glyph unicode="&#xe91a;" glyph-name="arrow-multi-line-down" d="M0 448c0-282.782 229.218-512 512-512s512 229.218 512 512-229.218 512-512 512-512-229.218-512-512zM944 448c0-238.594-193.406-432-432-432s-432 193.406-432 432 193.406 432 432 432 432-193.406 432-432zM447.906 704h128v-32h-128v32zM447.906 640h128v-32h-128v32zM447.906 576h128v-32h-128v32zM384 320l128-128 128 128h-64.094v128h-128v-128zM447.906 512h128v-32h-128v32z" />
<glyph unicode="&#xe91b;" glyph-name="arrow-multi-line-left" d="M512 960c-282.782 0-512-229.218-512-512s229.218-512 512-512 512 229.218 512 512-229.218 512-512 512zM512 16c-238.594 0-432 193.406-432 432s193.406 432 432 432 432-193.406 432-432-193.406-432-432-432zM736 512h32v-128h-32v128zM672 512h32v-128h-32v128zM608 512h32v-128h-32v128zM384 576l-128-128 128-128v64h128v128h-128zM544 512h32v-128h-32v128z" />
<glyph unicode="&#xe91c;" glyph-name="arrow-multi-line-right" d="M512-64c282.782 0 512 229.218 512 512s-229.218 512-512 512-512-229.218-512-512 229.218-512 512-512zM512 880c238.594 0 432-193.406 432-432s-193.406-432-432-432-432 193.406-432 432 193.406 432 432 432zM256 512h32v-128h-32v128zM320 512h32v-128h-32v128zM384 512h32v-128h-32v128zM640 320l128 128-128 128v-64h-128v-128h128zM448 512h32v-128h-32v128z" />
<glyph unicode="&#xe91d;" glyph-name="arrow-multi-line-up" d="M1024 448c0 282.782-229.218 512-512 512s-512-229.218-512-512 229.218-512 512-512 512 229.218 512 512zM80 448c0 238.594 193.406 432 432 432s432-193.406 432-432-193.406-432-432-432-432 193.406-432 432zM447.938 224h128v-32h-128v32zM447.938 288h128v-32h-128v32zM447.938 352h128v-32h-128v32zM640 576l-128 128-128-128h63.938v-128h128v128zM447.938 416h128v-32h-128v32z" />
<glyph unicode="&#xe91e;" glyph-name="arrow-oblique-contract-directions" d="M512 960c-282.782 0-512-229.218-512-512s229.218-512 512-512 512 229.218 512 512-229.218 512-512 512zM512 16c-238.594 0-432 193.406-432 432s193.406 432 432 432 432-193.406 432-432-193.406-432-432-432zM319.968 480h160.032v160l-48-48-80.032 80-64-64 80-80zM656.032 368l48 48h-160.032v-159.968l48 48 80.032-80 64 64zM655.968 528.032l80 79.968-64 64.032-79.968-80-48 48v-160.032h159.968zM367.968 368l-80-80.032 64-64 80 80 48.032-48v160.032h-160.032z" />
<glyph unicode="&#xe91f;" glyph-name="arrow-oblique-contract" d="M512 960c-282.782 0-512-229.218-512-512s229.218-512 512-512 512 229.218 512 512-229.218 512-512 512zM512 16c-238.594 0-432 193.406-432 432s193.406 432 432 432 432-193.406 432-432-193.406-432-432-432zM352 672l-64-64 80-80-48-48h160v160l-48-48zM704.062 416h-160.062v-159.968l48.032 48 80.030-80 64 64-80 79.968z" />
<glyph unicode="&#xe920;" glyph-name="arrow-oblique-expand-directions" d="M512 960c-282.782 0-512-229.218-512-512s229.218-512 512-512 512 229.218 512 512-229.218 512-512 512zM512 16c-238.594 0-432 193.406-432 432s193.406 432 432 432 432-193.406 432-432-193.406-432-432-432zM448 672h-160v-160l48 48 80-80 64 64-80 80zM576 224h160v160l-48-48-80 80-64-64 80-80zM736 512v160h-160l48-48-80-80 64-64 80 80zM288 384v-160h160l-48 48 80 80-64 64-80-80z" />
<glyph unicode="&#xe921;" glyph-name="arrow-oblique-expand" d="M512 960c-282.782 0-512-229.218-512-512s229.218-512 512-512 512 229.218 512 512-229.218 512-512 512zM512 16c-238.594 0-432 193.406-432 432s193.406 432 432 432 432-193.406 432-432-193.406-432-432-432zM448 672h-160v-160l48 48 80-80 64 64-80 80zM608 416l-64-64 80-80-48-48h160v160l-48-48z" />
<glyph unicode="&#xe922;" glyph-name="arrow-right-big" d="M512.016-64.008c282.816 0 511.976 229.222 511.976 512.008s-229.16 512.008-511.976 512.008c-282.754 0-512.008-229.222-512.008-512.008s229.254-512.008 512.008-512.008zM512.016 880.006c238.628 0 432.006-193.41 432.006-432.006s-193.376-432.008-432.006-432.008c-238.566 0-432.008 193.41-432.008 432.008s193.442 432.006 432.008 432.006zM544 255.996l224.004 192.004-224.004 192.004v-96.002h-288.004v-192.002h288.004z" />
<glyph unicode="&#xe923;" glyph-name="arrow-right-bold-round" d="M512 960c-282.782 0-512-229.218-512-512s229.218-512 512-512 512 229.218 512 512-229.218 512-512 512zM512 16c-238.594 0-432 193.406-432 432s193.406 432 432 432 432-193.406 432-432-193.406-432-432-432zM707.322 484.242l-308.348 179.188c-33.688 19.938-65.974 3.876-65.974-35.688v-359.532c0-39.5 32.286-55.594 65.974-35.624l305.91 179.156c33.812 19.938 36.22 52.562 2.438 72.5z" />
<glyph unicode="&#xe924;" glyph-name="arrow-right-bold" d="M512 960c-282.782 0-512-229.218-512-512s229.218-512 512-512 512 229.218 512 512-229.218 512-512 512zM512 16c-238.594 0-432 193.406-432 432s193.406 432 432 432 432-193.406 432-432-193.406-432-432-432zM339 224l384 224-384 224z" />
<glyph unicode="&#xe925;" glyph-name="arrow-right-light" d="M512-64c282.782 0 512 229.218 512 512s-229.218 512-512 512-512-229.218-512-512 229.218-512 512-512zM512 880c238.594 0 432-193.406 432-432s-193.406-432-432-432-432 193.406-432 432 193.406 432 432 432zM256 416h396.812l-76.812-82.312 42.688-45.688 149.312 160-149.312 160-42.688-45.75 76.812-82.25h-396.812z" />
<glyph unicode="&#xe926;" glyph-name="arrow-right-thin" d="M512-64c282.782 0 512 229.218 512 512s-229.218 512-512 512-512-229.218-512-512 229.218-512 512-512zM512 880c238.594 0 432-193.406 432-432s-193.406-432-432-432-432 193.406-432 432 193.406 432 432 432zM425.376 233.376c12.5-12.5 32.75-12.5 45.25 0l192 192c12.5 12.5 12.5 32.75 0 45.25l-192 192c-6.25 6.25-14.438 9.374-22.626 9.374s-16.376-3.124-22.624-9.376c-12.5-12.5-12.5-32.75 0-45.25l169.374-169.374-169.376-169.376c-12.498-12.5-12.498-32.748 0.002-45.248z" />
<glyph unicode="&#xe927;" glyph-name="arrow-right" d="M512-64c282.782 0 512 229.218 512 512s-229.218 512-512 512-512-229.218-512-512 229.218-512 512-512zM512 880c238.594 0 432-193.406 432-432s-193.406-432-432-432-432 193.406-432 432 193.406 432 432 432zM452 224l224 224-224 224-64-64 160-160-160-160z" />
<glyph unicode="&#xe928;" glyph-name="arrow-up-big" d="M1024 447.984c0 282.822-229.224 512.048-512.016 512.016-282.788 0-512.016-229.162-511.984-512.016 0-282.758 229.226-512.016 511.984-511.984 282.792-0.032 512.016 229.226 512.016 511.984zM80.004 447.984c0 238.632 193.38 432.014 431.98 432.014 238.634 0 432.016-193.38 432.016-432.014 0-238.538-193.382-431.98-432.016-431.98-238.6 0-431.98 193.444-431.98 431.98zM704.006 480.002l-192.008 224.006-192.004-224.006h96.002v-288.010h192.006v288.010z" />
<glyph unicode="&#xe929;" glyph-name="arrow-up-bold-round" d="M0 448c0-282.782 229.218-512 512-512s512 229.218 512 512-229.218 512-512 512-512-229.218-512-512zM944 448c0-238.594-193.406-432-432-432s-432 193.406-432 432 193.406 432 432 432 432-193.406 432-432zM475.758 643.322l-179.188-308.35c-19.938-33.688-3.876-65.972 35.688-65.972h359.532c39.5 0 55.594 32.286 35.624 65.972l-179.156 305.91c-19.938 33.814-52.562 36.222-72.5 2.44z" />
<glyph unicode="&#xe92a;" glyph-name="arrow-up-bold" d="M512 960c-282.782 0-512-229.218-512-512s229.218-512 512-512 512 229.218 512 512-229.218 512-512 512zM512 16c-238.594 0-432 193.406-432 432s193.406 432 432 432 432-193.406 432-432-193.406-432-432-432zM288 275h448l-224 384z" />
<glyph unicode="&#xe92b;" glyph-name="arrow-up-light" d="M1024 448c0 282.782-229.218 512-512 512s-512-229.218-512-512 229.218-512 512-512 512 229.218 512 512zM80 448c0 238.594 193.406 432 432 432s432-193.406 432-432-193.406-432-432-432-432 193.406-432 432zM543.938 192v396.812l82.344-76.812 45.718 42.688-160 149.312-160-149.312 45.718-42.688 82.22 76.812v-396.812z" />
<glyph unicode="&#xe92c;" glyph-name="arrow-up-thin" d="M1024 448c0 282.782-229.218 512-512 512s-512-229.218-512-512 229.218-512 512-512 512 229.218 512 512zM80 448c0 238.594 193.406 432 432 432s432-193.406 432-432-193.406-432-432-432-432 193.406-432 432zM726.624 361.376c12.5 12.5 12.5 32.75 0 45.25l-192 192c-12.5 12.5-32.75 12.5-45.25 0l-192-192c-6.25-6.25-9.374-14.438-9.374-22.626s3.124-16.376 9.376-22.624c12.5-12.5 32.75-12.5 45.25 0l169.374 169.374 169.376-169.376c12.5-12.498 32.748-12.498 45.248 0.002z" />
<glyph unicode="&#xe92d;" glyph-name="arrow-up" d="M1024 448c0 282.782-229.218 512-512 512s-512-229.218-512-512 229.218-512 512-512 512 229.218 512 512zM80 448c0 238.594 193.406 432 432 432s432-193.406 432-432-193.406-432-432-432-432 193.406-432 432zM736 388l-224 224-224-224 64-64 160 160 160-160z" />
<glyph unicode="&#xe92e;" glyph-name="atom" d="M512 960c-282.782 0-512-229.218-512-512s229.218-512 512-512c282.782 0 512 229.218 512 512s-229.218 512-512 512zM512 16c-238.594 0-432 193.406-432 432s193.406 432 432 432 432-193.406 432-432-193.406-432-432-432zM768 448c0 31.438-21.594 59.906-57.906 81.938 10.532 42.5 4.844 77.188-17.062 99.062-14.594 14.624-35.56 22.312-60.594 22.312-12.032 0-25-2.156-38.376-5.438-22.062 36.438-50.562 58.126-82.062 58.126s-60-21.688-82.062-58.124c-13.376 3.25-26.376 5.438-38.376 5.438-25.062 0-46-7.718-60.594-22.312-22.25-22.25-27.094-57.688-16.968-99-36.376-22.062-58-50.532-58-82 0-31.466 21.624-59.938 58-82-10.124-41.344-5.25-76.784 17-99.034 14.562-14.594 35.532-22.31 60.562-22.31 12.032 0 25 2.156 38.376 5.438 22.062-36.44 50.562-58.096 82.062-58.096s60 21.656 82.062 58.094c13.344-3.282 26.312-5.438 38.312-5.438 25.060 0 46.032 7.718 60.624 22.312 21.906 21.876 27.594 56.594 17.062 99.062 36.346 22.064 57.94 50.532 57.94 81.97zM577.938 607.376c10.688 4.094 21.124 7.344 30.968 9.25 8.188 1.624 16.156 2.688 23.532 2.688 16.624 0 29.376-4.344 37.968-12.938 12.376-12.344 15.782-34.124 10.312-61.5-1.718-8.624-4.25-17.75-7.75-27.438-0.406-1.124-1.124-2.376-1.562-3.5-4.594-12-10.406-24.188-17.218-36.5-5.406 7.438-10.688 14.876-16.688 22.218-9.75 11.906-20.312 23.594-31.468 34.968-1.25 1.25-2.282 2.624-3.532 3.876-1.282 1.25-2.624 2.376-3.906 3.624-11.468 11.25-23.25 21.624-35.188 31.376-7.282 5.968-14.562 11.688-21.938 17.032 12.47 6.906 24.594 12.344 36.47 16.844zM636.406 448c-8.906-13.124-19.094-26.094-30.032-38.876-8.376-9.812-17.062-19.562-26.5-29-9.406-9.406-19.094-18.124-28.906-26.468-12.844-10.968-25.906-20.938-39-29.844-13.094 8.906-26.156 18.876-39.032 29.844-9.75 8.344-19.438 17.032-28.812 26.438-9.688 9.656-18.218 19.406-26.5 29.124-11.062 13.032-21.188 25.966-29.812 38.782 8.624 12.782 18.75 25.75 29.812 38.75 8.282 9.75 16.812 19.5 26.5 29.124 9.376 9.438 19.062 18.124 28.876 26.5 12.844 10.938 25.906 20.876 38.968 29.782 13.094-8.906 26.124-18.844 38.968-29.782 9.812-8.376 19.534-17.094 28.94-26.5 9.438-9.438 18.124-19.188 26.5-29 10.936-12.812 21.124-25.812 30.030-38.874zM512 672c17.062 0 34.844-13 50.438-36.25-16.468-6.562-33.376-15.188-50.438-25.562-17.062 10.344-34 19-50.438 25.562 15.562 23.25 33.376 36.25 50.438 36.25zM353.594 606.376c8.594 8.562 21.344 12.938 37.968 12.938 7.376 0 15.312-1.062 23.532-2.688 9.844-1.938 20.282-5.188 30.968-9.25 11.844-4.532 23.968-9.938 36.438-16.844-7.376-5.344-14.688-11.094-21.938-17.032-11.938-9.75-23.688-20.062-35.156-31.312-1.282-1.25-2.656-2.376-3.906-3.688-1.312-1.282-2.5-2.624-3.782-3.938-11.156-11.376-21.624-22.938-31.188-34.594-5.968-7.282-11.532-14.594-16.876-21.938-6.782 12.406-12.532 24.5-16.876 35.968-4.094 10.876-7.282 21.312-9.188 31-5.434 27.47-2.090 49.314 10.004 61.378zM324.312 397.5c-23.25 15.594-36.312 33.406-36.312 50.5 0 17.062 13.032 34.876 36.312 50.468 6.5-16.406 15.032-33.344 25.438-50.468-10.406-17.188-18.938-34.094-25.438-50.5zM446.062 288.594c-10.688-4.094-21.124-7.344-30.938-9.282-8.218-1.594-16.156-2.656-23.562-2.656-16.594 0-29.376 4.376-37.938 12.938-12.094 12.094-15.438 33.906-10 61.406 1.906 9.656 5.062 20.094 9.188 31 4.312 11.438 10.094 23.532 16.844 35.938 5.344-7.344 10.906-14.656 16.906-21.938 9.532-11.656 20-23.188 31.124-34.562 1.312-1.312 2.5-2.656 3.812-3.968 1.282-1.282 2.624-2.404 3.938-3.688 11.438-11.216 23.188-21.562 35.062-31.282 7.312-5.968 14.624-11.718 22-17.062-12.436-6.906-24.56-12.314-36.436-16.844zM512 224c-17.062 0-34.844 13-50.406 36.218 16.438 6.562 33.344 15.216 50.376 25.594 17.062-10.406 33.968-19.062 50.438-25.624-15.564-23.188-33.346-36.188-50.408-36.188zM670.376 289.594c-8.594-8.594-21.376-12.938-38-12.938-7.376 0-15.31 1.062-23.5 2.656-9.844 1.938-20.25 5.188-30.966 9.282-11.844 4.5-23.968 9.938-36.468 16.844 7.406 5.344 14.69 11.094 22 17.062 11.906 9.75 23.69 20.094 35.156 31.344 1.284 1.282 2.624 2.376 3.906 3.656 1.25 1.25 2.312 2.624 3.534 3.876 11.154 11.376 21.716 23.034 31.438 34.94 6 7.344 11.31 14.782 16.716 22.25 6.784-12.346 12.594-24.534 17.156-36.5 0.468-1.19 1.156-2.406 1.594-3.562 3.5-9.624 6-18.75 7.75-27.376 5.464-27.378 2.058-49.19-10.316-61.534zM699.5 397.406c-6.656 16.656-15.438 33.594-25.75 50.594 10.312 17 19.124 33.938 25.75 50.594 23.376-15.594 36.5-33.47 36.5-50.594s-13.124-35-36.5-50.594zM576 448c0-35.344-28.656-64-64-64-35.312 0-64 28.656-64 64 0 35.312 28.688 64 64 64 35.344 0 64-28.688 64-64z" />
<glyph unicode="&#xe92f;" glyph-name="axis-rules" d="M512 960c-282.782 0-512-229.218-512-512s229.218-512 512-512 512 229.218 512 512-229.218 512-512 512zM512 16c-238.594 0-432 193.406-432 432s193.406 432 432 432 432-193.406 432-432-193.406-432-432-432zM256 704h128v-128h-128v128zM736 704v-64h-32v64h-32v-32h-32v32h-32v-64h-32v64h-32v-32h-32v32h-32v-64h-32v64h-32v-128h320v-352h-352v320h-128v-32h32v-32h-32v-32h64v-32h-64v-32h32v-32h-32v-32h64v-32h-64v-32h32v-32h-32v-32h512v512z" />
<glyph unicode="&#xe930;" glyph-name="backward" d="M512 960c-282.782 0-512-229.218-512-512s229.218-512 512-512 512 229.218 512 512-229.218 512-512 512zM512 16c-238.594 0-432 193.406-432 432s193.406 432 432 432 432-193.406 432-432-193.406-432-432-432zM672 288v320l-192-160zM288 448l192-160v320z" />
<glyph unicode="&#xe931;" glyph-name="bag" d="M512 960c-282.782 0-512-229.218-512-512s229.218-512 512-512 512 229.218 512 512-229.218 512-512 512zM512 16c-238.594 0-432 193.406-432 432s193.406 432 432 432 432-193.406 432-432-193.406-432-432-432zM736 543h-33v-320h33c17.688 0 31 15.312 31 33v256c0 17.688-13.312 31-31 31zM351 543h320v-320h-320v320zM319 543h-31c-17.672 0-33-13.312-33-31v-256c0-17.688 15.328-33 33-33h31v320zM576 671h-128c-17.672 0-33-13.312-33-31v-65h32v49c0 8.844 8.156 15 17 15h96c8.844 0 15-6.156 15-15v-49h32v65c0 17.688-13.312 31-31 31z" />
<glyph unicode="&#xe932;" glyph-name="ban-circle" d="M512 960c-282.782 0-512-229.218-512-512s229.218-512 512-512 512 229.218 512 512-229.218 512-512 512zM512 16c-238.594 0-432 193.406-432 432s193.406 432 432 432 432-193.406 432-432-193.406-432-432-432zM331 629.032c-100-99.968-100-262.094 0-362.062 99.938-99.968 262.062-99.968 362.032 0s99.968 262.094 0 362.062-262.094 99.968-362.032 0zM376.25 583.782c67.094 67.094 171.688 73.562 246.594 20.344l-266.968-266.97c-53.188 74.906-46.752 179.532 20.374 246.626zM647.75 312.25c-67.094-67.124-171.656-73.562-246.594-20.344l266.938 266.968c53.218-74.936 46.782-179.53-20.344-246.624z" />
<glyph unicode="&#xe933;" glyph-name="bars" d="M512 960c-282.782 0-512-229.218-512-512s229.218-512 512-512 512 229.218 512 512-229.218 512-512 512zM512 16c-238.594 0-432 193.406-432 432s193.406 432 432 432 432-193.406 432-432-193.406-432-432-432zM288 224h64v448h-64v-448zM384 224h64v64h-64v-64zM480 224h64v224h-64v-224zM576 224h64v352h-64v-352zM672 384v-160h64v160h-64z" />
<glyph unicode="&#xe934;" glyph-name="bezier" d="M512 960c-282.782 0-512-229.218-512-512s229.218-512 512-512 512 229.218 512 512-229.218 512-512 512zM512 16c-238.594 0-432 193.406-432 432s193.406 432 432 432 432-193.406 432-432-193.406-432-432-432zM736 384c0 123.5-100.5 224-224 224-123.516 0-224-100.5-224-224h-32v-96h96v96h-32c0 105.876 86.124 192 192 192s192-86.124 192-192h-32v-96h96v96h-32zM320 320h-32v32h32v-32zM736 320h-32v32h32v-32z" />
<glyph unicode="&#xe935;" glyph-name="blank" d="M512 960c-282.782 0-512-229.218-512-512s229.218-512 512-512 512 229.218 512 512-229.218 512-512 512zM512 16c-238.594 0-432 193.406-432 432s193.406 432 432 432 432-193.406 432-432-193.406-432-432-432z" />
<glyph unicode="&#xe936;" glyph-name="block-menu" d="M512 960c-282.782 0-512-229.218-512-512s229.218-512 512-512 512 229.218 512 512-229.218 512-512 512zM512 16c-238.594 0-432 193.406-432 432s193.406 432 432 432 432-193.406 432-432-193.406-432-432-432zM303 591h384v-64h-384v64zM303 463h384v-64h-384v64zM303 335h384v-64h-384v64z" />
<glyph unicode="&#xe937;" glyph-name="bolt" d="M512 960c-282.782 0-512-229.218-512-512s229.218-512 512-512 512 229.218 512 512-229.218 512-512 512zM512 16c-238.594 0-432 193.406-432 432s193.406 432 432 432 432-193.406 432-432-193.406-432-432-432zM416 417h86.406l-86.406-224.376 192 288.376h-84.688l84.688 223.624z" />
<glyph unicode="&#xe938;" glyph-name="box-add" d="M512 960c-282.782 0-512-229.218-512-512s229.218-512 512-512 512 229.218 512 512-229.218 512-512 512zM512 16c-238.594 0-432 193.406-432 432s193.406 432 432 432 432-193.406 432-432-193.406-432-432-432zM543 639h160v-160h64v224h-224zM319 479v160h160v64h-224v-224zM479 255h-160v160h-64v-224h224zM703 415v-160h-160v-64h224v224zM479 575h64v-256h-64v256zM383 479h256v-64h-256v64z" />
<glyph unicode="&#xe939;" glyph-name="box-blank" d="M512 960c-282.782 0-512-229.218-512-512s229.218-512 512-512 512 229.218 512 512-229.218 512-512 512zM512 16c-238.594 0-432 193.406-432 432s193.406 432 432 432 432-193.406 432-432-193.406-432-432-432zM544 640h160v-160h64v224h-224zM320 480v160h160v64h-224v-224zM480 256h-160v160h-64v-224h224zM704 416v-160h-160v-64h224v224z" />
<glyph unicode="&#xe93a;" glyph-name="box-close" d="M512 960c-282.782 0-512-229.218-512-512s229.218-512 512-512c282.782 0 512 229.218 512 512s-229.218 512-512 512zM512 16c-238.594 0-432 193.406-432 432s193.406 432 432 432 432-193.406 432-432-193.406-432-432-432zM544 640h160v-160h64v224h-224zM320 480v160h160v64h-224v-224zM480 256h-160v160h-64v-224h224zM704 416v-160h-160v-64h224v224zM444.128 334.871l-45.25 45.25 180.996 180.996 45.25-45.25-180.996-180.996zM579.88 334.871l-180.996 180.996 45.25 45.25 180.996-180.996-45.25-45.25z" />
<glyph unicode="&#xe93b;" glyph-name="box-remove" d="M512 960c-282.782 0-512-229.218-512-512s229.218-512 512-512c282.782 0 512 229.218 512 512s-229.218 512-512 512zM512 16c-238.594 0-432 193.406-432 432s193.406 432 432 432 432-193.406 432-432-193.406-432-432-432zM544 640h160v-160h64v224h-224zM320 480v160h160v64h-224v-224zM480 256h-160v160h-64v-224h224zM704 416v-160h-160v-64h224v224zM384 480h256v-64h-256v64z" />
<glyph unicode="&#xe93c;" glyph-name="browser-sizes" d="M512 960c-282.782 0-512-229.218-512-512s229.218-512 512-512 512 229.218 512 512-229.218 512-512 512zM512 16c-238.594 0-432 193.406-432 432s193.406 432 432 432 432-193.406 432-432-193.406-432-432-432zM384 544h256v-192h-256v192zM672 576h32v-256h-32v256zM736 640h32v-384h-32v384zM320 576h32v-256h-32v256zM256 640h32v-384h-32v384z" />
<glyph unicode="&#xe93d;" glyph-name="brush" d="M512 960c-282.782 0-512-229.218-512-512s229.218-512 512-512 512 229.218 512 512-229.218 512-512 512zM512 16c-238.594 0-432 193.406-432 432s193.406 432 432 432 432-193.406 432-432-193.406-432-432-432zM446.14 324.25c41.156 31.406 96.546 82.376 154.39 143.704 106.594 113.062 180.718 217.812 165.468 233.938-15.218 16.188-114-62.376-220.656-175.438-59.36-62.938-108.562-123.266-137.938-167.204-14.282-0.782-70.046-7.5-79.234-65.062 0 0-38.032-96.376-67.5-100.594-29.172-4.218 87.5 0.624 102.656 6.094 14.97 5.374 91.174 11.844 82.814 124.562z" />
<glyph unicode="&#xe93e;" glyph-name="button-add" d="M512 960c-282.782 0-512-229.218-512-512s229.218-512 512-512 512 229.218 512 512-229.218 512-512 512zM512 16c-238.594 0-432 193.406-432 432s193.406 432 432 432 432-193.406 432-432-193.406-432-432-432zM512 704c-141.39 0-256-114.624-256-256s114.61-256 256-256c141.376 0 256 114.624 256 256s-114.624 256-256 256zM640 416h-96v-96h-64v96h-96v64h96v96h64v-96h96v-64z" />
<glyph unicode="&#xe93f;" glyph-name="button-check" d="M512 960c-282.782 0-512-229.218-512-512s229.218-512 512-512 512 229.218 512 512-229.218 512-512 512zM512 16c-238.594 0-432 193.406-432 432s193.406 432 432 432 432-193.406 432-432-193.406-432-432-432zM512 704c-141.376 0-256-114.624-256-256s114.624-256 256-256 256 114.624 256 256-114.624 256-256 256zM480 320l-96 96 44.796 51.188 51.204-51.188 144 160 48-51.188-192-204.812z" />
<glyph unicode="&#xe940;" glyph-name="button-close" d="M512 960c-282.782 0-512-229.218-512-512s229.218-512 512-512 512 229.218 512 512-229.218 512-512 512zM512 16c-238.594 0-432 193.406-432 432s193.406 432 432 432 432-193.406 432-432-193.406-432-432-432zM512 704c-141.39 0-256-114.624-256-256s114.61-256 256-256c141.376 0 256 114.624 256 256s-114.624 256-256 256zM625.124 380.124l-45.25-45.25-67.874 67.876-67.876-67.876-45.266 45.25 67.876 67.876-67.876 67.876 45.266 45.25 67.876-67.876 67.876 67.876 45.25-45.25-67.876-67.876 67.874-67.876z" />
<glyph unicode="&#xe941;" glyph-name="button-email" d="M512 960c-282.782 0-512-229.218-512-512s229.218-512 512-512 512 229.218 512 512-229.218 512-512 512zM512 16c-238.594 0-432 193.406-432 432s193.406 432 432 432 432-193.406 432-432-193.406-432-432-432zM518.406 497.124c-6.782 0-13.468-2.124-20.156-6.468-6.624-4.312-12.624-9.782-17.876-16.376-5.25-6.624-9.5-13.782-12.624-21.562-3.156-7.844-4.718-15.218-4.718-22.188 0-4.312 0.594-8.562 1.688-12.782 1.156-4.25 2.906-8 5.344-11.312 2.344-3.406 5.406-6.124 9.188-8.156 3.75-2.032 8.312-3.032 13.562-3.032 9.5 0 18.688 3.188 27.438 9.5 8.782 6.438 15.25 15.5 19.218 27.25 2.032 6.218 3.594 11.376 4.688 15.468 1.094 4.062 2.062 7.376 2.624 9.906 0.718 2.5 1.032 4.406 1.094 5.75 0.188 1.344 0.218 2.468 0.218 3.406 0 9.124-2.876 16.5-8.624 22.124-5.782 5.692-12.814 8.472-21.064 8.472zM512 704c-141.406 0-256-114.624-256-256s114.594-256 256-256c141.376 0 256 114.624 256 256s-114.624 256-256 256zM632.656 429.782c-4.906-12-11.438-22.062-19.562-30.25-8.124-8.094-17.468-14.282-27.906-18.312-10.406-4.156-21.156-6.188-32.156-6.188-6.532 0-11.75 2-15.656 5.968-3.906 4-6.062 8.75-6.562 14.25-5.25-7.218-11.188-12.312-17.656-15.5-6.594-3.062-14.218-4.718-22.968-4.718-8.062 0-15.282 1.532-21.688 4.532-6.376 2.968-11.75 6.968-16.188 11.938-4.344 4.812-7.75 10.5-10.188 16.718-2.376 6.25-3.562 12.562-3.562 19.032 0 10.624 2 21.25 5.876 32.124 3.906 10.75 9.282 20.532 16.188 29.282 6.876 8.75 15.218 15.938 25 21.468 9.812 5.5 20.624 8.25 32.376 8.25 5.782 0 10.938-0.968 15.438-2.876s8.312-4.25 11.5-7c3.124-2.75 5.75-5.594 7.876-8.5 2.094-2.876 3.624-5.876 4.376-8.032l7.556 20.032h22.968l-29.438-97.062c-1.282-4.376-1.844-7.624-1.844-10.218 0-5.968 2.406-8.876 7.532-8.876 2.968 0 7.406 0.906 13.344 2.782 5.844 1.812 11.812 5.406 17.812 10.844 6.032 5.312 11.282 12.782 15.876 22.282 4.5 9.5 6.812 22.032 6.812 37.656 0 12.718-2.624 24.344-7.876 34.968-5.406 10.5-12.468 19.624-21.376 27.156-8.906 7.594-19.094 13.468-30.624 17.624-11.5 4.218-23.5 6.344-35.782 6.344-16.282 0-31.438-2.876-45.344-8.5-13.938-5.624-26.094-13.5-36.5-23.594-10.438-10.032-18.562-22.032-24.5-35.812-5.876-13.812-8.844-28.718-8.844-44.844 0-15.312 3.032-29.312 9.25-41.938 6.156-12.562 14.282-23.312 24.468-32.25 10.156-8.844 21.812-15.624 35-20.5 13.188-4.812 26.876-7.25 41.188-7.25 19.344 0 36.376 4.782 51.032 12.218 14.658 7.502 26.408 30.97 35.096 30.97h23c-4.218 0-10.282-20.718-18.156-28.438-8-7.718-16.968-14.562-27.156-19.75-10.156-5.124-21.156-9.312-33.124-11.812-11.938-2.5-24.062-3.876-36.312-3.876-16.344 0-32.156 2.938-47.438 8.938-15.312 6-28.876 14.406-40.624 25.188-11.812 10.782-21.312 23.594-28.468 38.532-7.094 14.812-10.718 31.156-10.718 48.968 0 20.624 3.782 39.218 11.312 55.75 7.5 16.594 17.624 30.656 30.312 42.282 12.688 11.688 27.312 20.624 44.032 26.844 16.718 6.25 34.282 9.376 52.906 9.376 15.032 0 29.656-2.594 43.812-7.75 14.156-5.124 26.688-12.376 37.624-21.594 10.938-9.282 19.624-20.282 26.156-33.156 6.532-12.782 9.844-26.876 9.844-42.282-0.002-15.596-2.534-29.376-7.346-41.438z" />
<glyph unicode="&#xe942;" glyph-name="button-exclamation" d="M512 964c-282.782 0-512-229.218-512-512s229.218-512 512-512 512 229.218 512 512-229.218 512-512 512zM512 20c-238.594 0-432 193.406-432 432s193.406 432 432 432 432-193.406 432-432-193.406-432-432-432zM512 708c-141.376 0-256-114.624-256-256s114.624-256 256-256 256 114.624 256 256-114.624 256-256 256zM512 324c-17.688 0-32 14.312-32 32s14.312 32 32 32 32-14.312 32-32-14.312-32-32-32zM528 420h-32l-16 160h64l-16-160z" />
<glyph unicode="&#xe943;" glyph-name="button-minus" d="M512 960c-282.782 0-512-229.218-512-512s229.218-512 512-512 512 229.218 512 512-229.218 512-512 512zM512 16c-238.594 0-432 193.406-432 432s193.406 432 432 432 432-193.406 432-432-193.406-432-432-432zM512 704c-141.39 0-256-114.624-256-256s114.61-256 256-256c141.376 0 256 114.624 256 256s-114.624 256-256 256zM640 416h-256v64h256v-64z" />
<glyph unicode="&#xe944;" glyph-name="button-question" d="M512 960c-282.782 0-512-229.218-512-512s229.218-512 512-512 512 229.218 512 512-229.218 512-512 512zM512 16c-238.594 0-432 193.406-432 432s193.406 432 432 432 432-193.406 432-432-193.406-432-432-432zM512 704c-141.376 0-256-114.624-256-256s114.624-256 256-256 256 114.624 256 256-114.624 256-256 256zM502.75 316c-20.344 0-34.156 14.968-34.156 34.938 0 20.688 14.188 34.906 34.156 34.906 20.688 0 34.124-14.218 34.562-34.906 0-19.97-13.436-34.938-34.562-34.938zM556.376 459.156c-13.812-15.718-12.376-30.718-12.376-47.968v4.812h-65.438l-0.376 4.124c-1.156 19.562 5.376 36.594 22.624 56.938 12.312 14.968 22.25 26.156 22.25 38.844 0 13.406-8.812 21.906-28 22.282-12.656 0-28-4.968-38-11.876l-13.032 41.624c14.188 8.062 36.844 15.656 64.094 15.656 50.624 0 77.656-28.032 77.656-59.906 0.004-29.186-14.84-48.436-29.402-64.53z" />
<glyph unicode="&#xe945;" glyph-name="camera" d="M512 960c-282.782 0-512-229.218-512-512s229.218-512 512-512 512 229.218 512 512-229.218 512-512 512zM512 16c-238.594 0-432 193.406-432 432s193.406 432 432 432 432-193.406 432-432-193.406-432-432-432zM512 512c-53.016 0-96-43-96-96 0-53.032 42.984-96 96-96 53.032 0 96 42.968 96 96 0 53-42.968 96-96 96zM736 576h-143.844c-7.282 0-14.624 29.094-16.156 32.156-3.188 6.406-14.312 31.844-32 31.844h-64c-17.672 0-28.796-25.438-32-31.844-1.532-3.062-8.876-32.156-16.156-32.156h-143.844c-17.672 0-32-14.468-32-32.124v-256.032c0-17.688 14.328-31.844 32-31.844h448c17.688 0 32 14.156 32 31.844v256.032c0 17.656-14.312 32.124-32 32.124zM512 288c-70.672 0-128 57.282-128 128 0 70.688 57.328 128 128 128 70.718 0 128-57.312 128-128 0-70.718-57.282-128-128-128z" />
<glyph unicode="&#xe946;" glyph-name="cd-dvd-rom" d="M512 960c-282.782 0-512-229.218-512-512s229.218-512 512-512 512 229.218 512 512-229.218 512-512 512zM512 16c-238.594 0-432 193.406-432 432s193.406 432 432 432 432-193.406 432-432-193.406-432-432-432zM512 704c-141.376 0-256-114.624-256-256s114.624-256 256-256 256 114.624 256 256-114.624 256-256 256zM512 320c-70.688 0-128 57.376-128 128 0 70.688 57.312 128 128 128 70.624 0 128-57.312 128-128 0-70.624-57.376-128-128-128zM512 524c-41.906 0-76-34.094-76-76s34.094-76 76-76 76 34.094 76 76-34.094 76-76 76zM512 416c-17.688 0-32 14.312-32 32s14.312 32 32 32 32-14.312 32-32-14.312-32-32-32z" />
<glyph unicode="&#xe947;" glyph-name="chart-down" d="M512 960c-282.782 0-512-229.218-512-512s229.218-512 512-512 512 229.218 512 512-229.218 512-512 512zM512 16c-238.594 0-432 193.406-432 432s193.406 432 432 432 432-193.406 432-432-193.406-432-432-432zM767 687c0 8.836-7.164 16-16 16h-480c-8.836 0-16-7.164-16-16v-480c0-8.836 7.164-16 16-16h480c8.836 0 16 7.164 16 16v480zM735 239c0-8.836-7.164-16-16-16h-416c-8.836 0-16 7.164-16 16v416c0 8.836 7.164 16 16 16h416c8.836 0 16-7.164 16-16v-416zM643.124 384.844l-90.53 191.156-96.938-102.376-81.812 86.376-21.844-23.094 103.656-109.438 88.468 93.438 71.468-150.876c-3.156-5.124-5.406-10.844-5.406-17.376 0-18.062 13.812-32.656 30.906-32.656s30.908 14.596 30.908 32.658c0 17.282-12.812 31.032-28.876 32.188z" />
<glyph unicode="&#xe948;" glyph-name="chat" d="M512 960c-282.782 0-512-229.218-512-512s229.218-512 512-512 512 229.218 512 512-229.218 512-512 512zM512 16c-238.594 0-432 193.406-432 432s193.406 432 432 432 432-193.406 432-432-193.406-432-432-432zM768 544.344c0 88.156-85.968 159.656-192 159.656-106 0-192-71.5-192-159.656 0-88.188 86-159.656 192-159.656 34.968 0 76.812 15.532 76.812 15.532l105.624-48.124-22.468 102.562c0-0.002 32.032 50.654 32.032 89.686zM654.124 434.812l-12.438-4.562c-10.188-3.75-41.906-13.532-65.688-13.532-88.218 0-160 57.25-160 127.624s71.782 127.624 160 127.624 159.968-57.25 159.968-127.624c0-21.468-16.532-55.906-27.032-72.594l-7-11.094 11.562-52.906-59.372 27.064zM448 256.624c-23.782 0-55.5 9.782-65.718 13.532l-12.344 4.562-59.438-27.062 11.562 52.906-7 11.094c-10.468 16.656-27.062 51.126-27.062 72.594 0 44.75 29.156 84.032 73 106.812-3.5 10.376-6.124 21.062-7.562 32.032-58.126-27.406-97.438-79.282-97.438-138.844 0-39 32-89.688 32-89.688l-22.438-102.562 105.624 48.124c0 0 41.844-15.532 76.812-15.532 96.844 0 176.75 60.532 189.876 137.468-10-2.688-21.906-5.282-34.532-7.094-16.718-56.248-79.78-98.342-155.342-98.342z" />
<glyph unicode="&#xe949;" glyph-name="check" d="M422.688 346.594l-102.688 101.406-64-64 166.828-160 345.172 384-64.594 64zM512 960c-282.782 0-512-229.218-512-512s229.218-512 512-512 512 229.218 512 512-229.218 512-512 512zM512 16c-238.594 0-432 193.406-432 432s193.406 432 432 432 432-193.406 432-432-193.406-432-432-432z" />
<glyph unicode="&#xe94a;" glyph-name="circles" d="M512 960c-282.782 0-512-229.218-512-512s229.218-512 512-512 512 229.218 512 512-229.218 512-512 512zM512 16c-238.594 0-432 193.406-432 432s193.406 432 432 432 432-193.406 432-432-193.406-432-432-432zM576 704c-106.032 0-192-85.968-192-192 0-1.062 0.094-2.094 0.124-3.218-73.062-14.75-128.124-79.314-128.124-156.782 0-88.376 71.594-160 160-160 77.438 0 142.032 55.062 156.844 128.188 1.062-0.032 2.094-0.188 3.156-0.188 106.032 0 192 85.968 192 192s-85.968 192-192 192zM416 224c-70.562 0-128 57.438-128 128 0 60.718 42.562 111.468 99.438 124.5 14.5-77.532 75.532-138.562 153.062-153.062-13.062-56.876-63.812-99.438-124.5-99.438zM419.344 479.688c67.812-1.75 122.594-56.468 124.312-124.406-62.28 12.874-111.562 62.030-124.312 124.406zM576 352c0 88.344-71.594 160-160 160 0 88.218 71.812 160 160 160s160-71.782 160-160-71.812-160-160-160zM320 512c35.312 0 64 28.688 64 64s-28.688 64-64 64-64-28.688-64-64 28.688-64 64-64zM320 608c17.624 0 32-14.376 32-32s-14.376-32-32-32-32 14.376-32 32 14.376 32 32 32z" />
<glyph unicode="&#xe94b;" glyph-name="clock" d="M512 960c-282.782 0-512-229.218-512-512s229.218-512 512-512 512 229.218 512 512-229.218 512-512 512zM512 16c-238.594 0-432 193.406-432 432s193.406 432 432 432 432-193.406 432-432-193.406-432-432-432zM512 704c-141.376 0-256-114.624-256-256s114.624-256 256-256 256 114.624 256 256-114.624 256-256 256zM512 240c-114.876 0-208 93.156-208 208 0 114.876 93.124 208 208 208 114.844 0 208-93.124 208-208 0-114.844-93.156-208-208-208zM512 416c-17.688 0-32 14.312-32 32s14.312 32 32 32 32-14.312 32-32-14.312-32-32-32zM492.124 445.25l22.626 22.626 74.75-74.72-22.624-22.656zM384.938 552.438l22.624 22.656 124.344-124.344-22.656-22.626z" />
<glyph unicode="&#xe94c;" glyph-name="cloud-add" d="M512 960c-282.782 0-512-229.218-512-512s229.218-512 512-512 512 229.218 512 512-229.218 512-512 512zM512 16c-238.594 0-432 193.406-432 432s193.406 432 432 432 432-193.406 432-432-193.406-432-432-432zM717.438 478.532c11.53 19.218 18.562 41.436 18.562 65.468 0 70.688-57.312 128-128 128-58.75 0-107.718-39.812-122.782-93.75-17.468 18.266-41.968 29.75-69.218 29.75-53 0-96-42.984-96-96 0-11.5 2.376-22.406 6.062-32.624-2 0.188-4 0.624-6.062 0.624-35.344 0-64-44.656-64-80s28.656-80 64-80h203.188c18 64 56.188 80 100.812 80 43.312 0 80.438-16.812 99.062-52.782 25.97 8.158 44.938 36.126 44.938 64.782 0 30.718-21.688 60.344-50.562 66.532zM624 384c-44.188 0-80-35.812-80-80s35.812-80 80-80 80 35.812 80 80-35.812 80-80 80zM672 288h-32v-32h-32v32h-32v32h32v32h32v-32h32v-32z" />
<glyph unicode="&#xe94d;" glyph-name="cloud-download" d="M512 960c-282.782 0-512-229.218-512-512s229.218-512 512-512 512 229.218 512 512-229.218 512-512 512zM512 16c-238.594 0-432 193.406-432 432s193.406 432 432 432 432-193.406 432-432-193.406-432-432-432zM717.438 478.532c11.53 19.218 18.562 41.436 18.562 65.468 0 70.688-57.312 128-128 128-58.75 0-107.718-39.812-122.782-93.75-17.468 18.266-41.968 29.75-69.218 29.75-53 0-96-42.984-96-96 0-11.5 2.376-22.406 6.062-32.624-2 0.188-4 0.624-6.062 0.624-35.344 0-64-44.656-64-80s28.656-80 64-80h203.188c18 64 56.188 80 100.812 80 43.312 0 80.438-16.812 99.062-52.782 25.97 8.158 44.938 36.126 44.938 64.782 0 30.718-21.688 60.344-50.562 66.532zM624 384c-44.188 0-80-35.812-80-80s35.812-80 80-80 80 35.812 80 80-35.812 80-80 80zM624 243.188l-38.406 44.812h22.406v64h32v-64h22.406l-38.406-44.812z" />
<glyph unicode="&#xe94e;" glyph-name="cloud-remove" d="M512 960c-282.782 0-512-229.218-512-512s229.218-512 512-512 512 229.218 512 512-229.218 512-512 512zM512 16c-238.594 0-432 193.406-432 432s193.406 432 432 432 432-193.406 432-432-193.406-432-432-432zM717.438 478.532c11.53 19.218 18.562 41.436 18.562 65.468 0 70.688-57.312 128-128 128-58.75 0-107.718-39.812-122.782-93.75-17.468 18.266-41.968 29.75-69.218 29.75-53 0-96-42.984-96-96 0-11.5 2.376-22.406 6.062-32.624-2 0.188-4 0.624-6.062 0.624-35.344 0-64-44.656-64-80s28.656-80 64-80h203.188c18 64 56.188 80 100.812 80 43.312 0 80.438-16.812 99.062-52.782 25.97 8.158 44.938 36.126 44.938 64.782 0 30.718-21.688 60.344-50.562 66.532zM624 384c-44.188 0-80-35.812-80-80s35.812-80 80-80 80 35.812 80 80-35.812 80-80 80zM672 288h-96v32h96v-32z" />
<glyph unicode="&#xe94f;" glyph-name="cloud-upload" d="M512 960c-282.782 0-512-229.218-512-512s229.218-512 512-512 512 229.218 512 512-229.218 512-512 512zM512 16c-238.594 0-432 193.406-432 432s193.406 432 432 432 432-193.406 432-432-193.406-432-432-432zM717.438 478.532c11.53 19.218 18.562 41.436 18.562 65.468 0 70.688-57.312 128-128 128-58.75 0-107.718-39.812-122.782-93.75-17.468 18.266-41.968 29.75-69.218 29.75-53 0-96-42.984-96-96 0-11.5 2.376-22.406 6.062-32.624-2 0.188-4 0.624-6.062 0.624-35.344 0-64-44.656-64-80s28.656-80 64-80h203.188c18 64 56.188 80 100.812 80 43.312 0 80.438-16.812 99.062-52.782 25.97 8.158 44.938 36.126 44.938 64.782 0 30.718-21.688 60.344-50.562 66.532zM624 224c44.188 0 80 35.812 80 80s-35.812 80-80 80-80-35.812-80-80 35.812-80 80-80zM624 364.812l38.406-44.812h-22.406v-64h-32v64h-22.406l38.406 44.812z" />
<glyph unicode="&#xe950;" glyph-name="cloud" d="M717.438 414.532c11.53 19.218 18.562 41.436 18.562 65.468 0 70.688-57.312 128-128 128-58.75 0-107.718-39.812-122.782-93.75-17.468 18.25-41.968 29.75-69.218 29.75-53 0-96-43-96-96 0-11.5 2.376-22.406 6.062-32.624-2 0.188-4 0.624-6.062 0.624-35.344 0-64-44.656-64-80s28.656-80 64-80h384c35.344 0 64 44.656 64 80 0 30.718-21.688 72.344-50.562 78.532zM512 960c-282.782 0-512-229.218-512-512s229.218-512 512-512 512 229.218 512 512-229.218 512-512 512zM512 16c-238.594 0-432 193.406-432 432s193.406 432 432 432 432-193.406 432-432-193.406-432-432-432z" />
<glyph unicode="&#xe951;" glyph-name="coins" d="M512 960c-282.782 0-512-229.218-512-512s229.218-512 512-512 512 229.218 512 512-229.218 512-512 512zM512 16c-238.594 0-432 193.406-432 432s193.406 432 432 432 432-193.406 432-432-193.406-432-432-432zM512 287.562c-60.062 0-122.876 12.656-159.688 39.406 0-0.438-0.312-0.876-0.312-1.282 0-6.718 0-31.438 0-38.124 0-35.124 71.624-63.562 160-63.562s160 28.438 160 63.562c0 6.688 0 31.406 0 38.124 0 0.406-0.312 0.844-0.312 1.282-36.812-26.75-99.656-39.406-159.688-39.406zM512 382.906c-60.062 0-122.876 12.624-159.688 39.376 0-0.438-0.312-0.844-0.312-1.282 0-6.718 0-31.406 0-38.094 0-35.124 71.624-63.594 160-63.594s160 28.468 160 63.594c0 6.688 0 31.376 0 38.094 0 0.438-0.312 0.844-0.312 1.282-36.812-26.75-99.656-39.376-159.688-39.376zM352 514.688c0-8.062 0-30.156 0-36.5 0-35.124 71.624-63.562 160-63.562s160 28.438 160 63.562c0 6.344 0 28.438 0 36.5-36.75-26.938-99.782-39.688-160-39.688s-123.25 12.75-160 39.688zM512 672c-88.376 0-160-28.438-160-63.562 0-6.688 0-31.406 0-38.124 0-35.062 71.624-63.532 160-63.532s160 28.468 160 63.532c0 6.718 0 31.438 0 38.124 0 35.124-71.624 63.562-160 63.562z" />
<glyph unicode="&#xe952;" glyph-name="comment" d="M512 960c-282.782 0-512-229.218-512-512s229.218-512 512-512 512 229.218 512 512-229.218 512-512 512zM512 16c-238.594 0-432 193.406-432 432s193.406 432 432 432 432-193.406 432-432-193.406-432-432-432zM512 640c-123.718 0-224-74.766-224-166.938 0-41.062 31.094-87.812 64-116.906l-32-100.156 97.25 65.906c28.812-10.062 60.812-15.812 94.75-15.812 123.718 0 224 74.718 224 166.968 0 92.172-100.282 166.938-224 166.938z" />
<glyph unicode="&#xe953;" glyph-name="comments" d="M512 960c-282.782 0-512-229.218-512-512s229.218-512 512-512 512 229.218 512 512-229.218 512-512 512zM512 16c-238.594 0-432 193.406-432 432s193.406 432 432 432 432-193.406 432-432-193.406-432-432-432zM621.75 450.532c-80.876 0-146.344-44.156-146.344-98.468 0-24.188 20.344-51.75 41.844-68.938l-20.874-59.126 63.406 38.938c18.906-5.938 39.782-9.312 61.968-9.312 80.782 0 146.25 44 146.25 98.438 0 54.312-65.468 98.468-146.25 98.468zM512 672c-141.376 0-256-80.468-256-179.782 0-44.124 35.562-94.468 73.124-125.844l-36.532-107.938 111.094 71.124c14.5-4.75 29.876-8.5 45.688-11.312-6.468 12.688-10.5 25.876-10.5 38.25 0 70.968 81.876 128.438 182.876 128.438 54.124 0 102.376-16.844 135.876-43.156 6.624 16 10.376 32.938 10.376 50.438-0.002 99.314-114.626 179.782-256.002 179.782z" />
<glyph unicode="&#xe954;" glyph-name="compass-2" d="M512 960c-282.782 0-512-229.218-512-512s229.218-512 512-512 512 229.218 512 512-229.218 512-512 512zM512 16c-238.594 0-432 193.406-432 432s193.406 432 432 432 432-193.406 432-432-193.406-432-432-432zM512 704c-141.39 0-256-114.624-256-256s114.61-256 256-256c141.376 0 256 114.624 256 256s-114.624 256-256 256zM512 224c-123.516 0-224 100.5-224 224s100.484 224 224 224c123.5 0 224-100.5 224-224s-100.5-224-224-224zM384 320l160 96 96 160-160-96-96-160zM512 464c8.844 0 16-7.156 16-16s-7.156-16-16-16-16 7.156-16 16 7.156 16 16 16z" />
<glyph unicode="&#xe955;" glyph-name="compass" d="M512 960c-282.782 0-512-229.218-512-512s229.218-512 512-512 512 229.218 512 512-229.218 512-512 512zM512 16c-238.594 0-432 193.406-432 432s193.406 432 432 432 432-193.406 432-432-193.406-432-432-432zM448.782 511.062l13.936 55.656-174 104.406 104.376-174zM630.562 497.656l103.688 174.344-173.25-104.812 14-55.876zM575.376 385.094l-13.72-55.782 174.344-103.75-105.062 173.656zM393.094 398.656l-104.376-173.968 174.376 104.688-14.062 55.342zM512 704l-51.188-204.782-204.812-51.218 205-51.25 52-204.75 50.468 205.094 204.532 51.906-204.844 50.406-51.156 204.594zM512 416c-17.656 0-32 14.344-32 32s14.344 32 32 32 32-14.344 32-32-14.344-32-32-32z" />
<glyph unicode="&#xe956;" glyph-name="contract-directions" d="M512 960c-282.782 0-512-229.218-512-512s229.218-512 512-512 512 229.218 512 512-229.218 512-512 512zM512 16c-238.594 0-432 193.406-432 432s193.406 432 432 432 432-193.406 432-432-193.406-432-432-432zM384 544h256v-192h-256v192zM288 384l64 64-64 64zM736 384v128l-64.032-64zM575.938 640h-128.032l64-64zM447.876 256h128.062l-64 64z" />
<glyph unicode="&#xe957;" glyph-name="contract-horizontal" d="M512 960c-282.782 0-512-229.218-512-512s229.218-512 512-512 512 229.218 512 512-229.218 512-512 512zM512 16c-238.594 0-432 193.406-432 432s193.406 432 432 432 432-193.406 432-432-193.406-432-432-432zM384 544h256v-192h-256v192zM288 383.906l64 64-64 64.032zM736 383.906v128.032l-64.032-64.032z" />
<glyph unicode="&#xe958;" glyph-name="contract-vertical" d="M512 960c-282.782 0-512-229.218-512-512s229.218-512 512-512 512 229.218 512 512-229.218 512-512 512zM512 16c-238.594 0-432 193.406-432 432s193.406 432 432 432 432-193.406 432-432-193.406-432-432-432zM384 544h256v-192h-256v192zM576 640h-128l64-64zM448 256h128l-64 64.062z" />
<glyph unicode="&#xe959;" glyph-name="copy-document" d="M512 960c-282.782 0-512-229.218-512-512s229.218-512 512-512 512 229.218 512 512-229.218 512-512 512zM512 16c-238.594 0-432 193.406-432 432s193.406 432 432 432 432-193.406 432-432-193.406-432-432-432zM288 576h320v-384h-320v384zM736 704h-320v-96h224v-288h96z" />
<glyph unicode="&#xe95a;" glyph-name="copy-paste-document" d="M512 960c-282.782 0-512-229.218-512-512s229.218-512 512-512 512 229.218 512 512-229.218 512-512 512zM512 16c-238.594 0-432 193.406-432 432s193.406 432 432 432 432-193.406 432-432-193.406-432-432-432zM256 512h320v-320h-320v320zM672 608h-320v-64h256v-256h64zM768 704h-320v-64h256v-256h64z" />
<glyph unicode="&#xe95b;" glyph-name="credit-card" d="M512 960c-282.782 0-512-229.218-512-512s229.218-512 512-512 512 229.218 512 512-229.218 512-512 512zM512 16c-238.594 0-432 193.406-432 432s193.406 432 432 432 432-193.406 432-432-193.406-432-432-432zM736 528c0 44.188-35.812 80-80 80h-288c-44.188 0-80-35.812-80-80v-160c0-44.188 35.812-80 80-80h288c44.188 0 80 35.812 80 80v160zM367.188 576h288c20.876 0 38.438-13.438 45.062-32h-378.094c6.626 18.562 24.22 32 45.032 32zM704 368c0-26.468-22.312-48-48.812-48h-288c-26.438 0-47.188 21.532-47.188 48v112h384v-112zM367.188 416h128c8.876 0 16 7.156 16 16s-7.124 16-16 16h-128c-8.812 0-16-7.156-16-16s7.188-16 16-16zM623.188 416h32c8.876 0 16 7.156 16 16s-7.124 16-16 16h-32c-8.812 0-16-7.156-16-16s7.188-16 16-16zM367.188 352h64c8.876 0 16 7.156 16 16s-7.124 16-16 16h-64c-8.812 0-16-7.156-16-16s7.188-16 16-16z" />
<glyph unicode="&#xe95c;" glyph-name="cross" d="M670.376 651.624l-158.376-158.374-158.376 158.374-45.248-45.248 158.374-158.376-158.374-158.376 45.248-45.248 158.376 158.374 158.376-158.374 45.248 45.248-158.374 158.376 158.374 158.376zM512 960c-282.782 0-512-229.218-512-512s229.218-512 512-512 512 229.218 512 512-229.218 512-512 512zM512 16c-238.594 0-432 193.406-432 432s193.406 432 432 432 432-193.406 432-432-193.406-432-432-432z" />
<glyph unicode="&#xe95d;" glyph-name="directions" d="M512 960c-282.782 0-512-229.218-512-512s229.218-512 512-512 512 229.218 512 512-229.218 512-512 512zM512 16c-238.594 0-432 193.406-432 432s193.406 432 432 432 432-193.406 432-432-193.406-432-432-432zM768 448l-64 64v-32h-160v160h32l-64 64-64-64h32v-160h-160v32l-64-64 64-64v32h160v-160h-32l64-64 64 64h-32v160h160v-32z" />
<glyph unicode="&#xe95e;" glyph-name="document-fill" d="M512 960c-282.782 0-512-229.218-512-512s229.218-512 512-512 512 229.218 512 512-229.218 512-512 512zM512 16c-238.594 0-432 193.406-432 432s193.406 432 432 432 432-193.406 432-432-193.406-432-432-432zM640 704h-320v-512h384v438.844l-64 73.156zM352 224v448h256v-64h64v-384h-320zM384 416h256v-32h-256v32zM384 480h256v-32h-256v32zM384 576h128v-32h-128v32zM384 640h64v-32h-64v32zM384 352h256v-32h-256v32zM384 288h256v-32h-256v32z" />
<glyph unicode="&#xe95f;" glyph-name="document" d="M512 960c-282.782 0-512-229.218-512-512s229.218-512 512-512 512 229.218 512 512-229.218 512-512 512zM512 16c-238.594 0-432 193.406-432 432s193.406 432 432 432 432-193.406 432-432-193.406-432-432-432zM640 704h-320v-512h384v438.844l-64 73.156zM352 224v448h256v-64h64v-384h-320z" />
<glyph unicode="&#xe960;" glyph-name="documents" d="M512 960c-282.782 0-512-229.218-512-512s229.218-512 512-512 512 229.218 512 512-229.218 512-512 512zM512 16c-238.594 0-432 193.406-432 432s193.406 432 432 432 432-193.406 432-432-193.406-432-432-432zM721 703h-242v-128h-224v-384h288v128h224v338l-46 46zM511 223h-224v320h192v-224h32v-96zM735 351h-224v320h160v-64h64v-256z" />
<glyph unicode="&#xe961;" glyph-name="dollar" d="M512 960c-282.782 0-512-229.218-512-512s229.218-512 512-512 512 229.218 512 512-229.218 512-512 512zM512 16c-238.594 0-432 193.406-432 432s193.406 432 432 432 432-193.406 432-432-193.406-432-432-432zM535.844 256.532v-64.532h-51.438v60.812c-39.032 1.218-78.094 12.5-100.406 26.938l16.75 59.532c24.812-15.062 58.876-27.562 96.688-27.562 39.624 0 66.282 19.406 66.282 48.876 0 28.782-21.656 46.312-68.156 63.282-64.438 23.812-107.218 54.5-107.218 112.188 0 53.876 37.218 95.876 99.782 107.124v60.81h50.812v-57.656c39.032-1.25 65.718-11.282 85.562-21.312l-16.75-57.656c-14.876 7.5-42.156 21.938-84.282 21.938-43.406 0-58.906-22.562-58.906-43.876 0-25.688 22.312-40.718 75.624-61.438 69.406-26.312 99.812-60.124 99.812-116.562 0-53.282-36.594-99.626-104.156-110.906z" />
<glyph unicode="&#xe962;" glyph-name="dot-circle" d="M512 960c-282.782 0-512-229.218-512-512s229.218-512 512-512 512 229.218 512 512-229.218 512-512 512zM512 16c-238.594 0-432 193.406-432 432s193.406 432 432 432 432-193.406 432-432-193.406-432-432-432zM544 256c0-17.688-14.312-32-32-32s-32 14.312-32 32 14.312 32 32 32 32-14.312 32-32zM544 640c0-17.688-14.312-32-32-32s-32 14.312-32 32 14.312 32 32 32 32-14.312 32-32zM736 448c0-17.688-14.312-32-32-32s-32 14.312-32 32 14.312 32 32 32 32-14.312 32-32zM352 448c0-17.688-14.312-32-32-32s-32 14.312-32 32 14.312 32 32 32 32-14.312 32-32zM346.124 506.312c17.688 50.124 57.438 89.876 107.562 107.562-3.594 8-5.688 16.782-5.688 26.124 0 2.062 0.438 4.032 0.624 6.062-63.782-20.5-114.188-70.906-134.688-134.688 2.032 0.188 4 0.624 6.062 0.624 9.348 0.004 18.128-2.090 26.128-5.684zM453.688 282.124c-50.124 17.718-89.876 57.406-107.562 107.562-8-3.594-16.782-5.688-26.124-5.688-2.062 0-4.032 0.406-6.062 0.594 20.5-63.75 70.906-114.188 134.688-134.624-0.188 2-0.624 3.968-0.624 6.032-0.004 9.344 2.090 18.156 5.684 26.124zM570.312 613.876c50.156-17.688 89.844-57.438 107.562-107.562 7.97 3.592 16.782 5.686 26.126 5.686 2.062 0 4.032-0.438 6.032-0.624-20.438 63.782-70.876 114.188-134.624 134.688 0.188-2.032 0.594-4 0.594-6.062-0.002-9.346-2.096-18.126-5.69-26.126zM677.844 389.688c-17.688-50.124-57.406-89.844-107.532-107.532 3.594-8 5.688-16.812 5.688-26.156 0-2.062-0.406-4.032-0.594-6.032 63.75 20.438 114.188 70.876 134.624 134.624-2-0.188-3.968-0.594-6.032-0.594-9.342 0.002-18.154 2.096-26.154 5.69z" />
<glyph unicode="&#xe963;" glyph-name="dot-line" d="M512 960c-282.782 0-512-229.218-512-512s229.218-512 512-512 512 229.218 512 512-229.218 512-512 512zM512 16c-238.594 0-432 193.406-432 432s193.406 432 432 432 432-193.406 432-432-193.406-432-432-432zM768 608v96h-96v-73.406l-342.624-342.594h-73.376v-96h96v73.376l342.656 342.624h73.344zM704 672h32v-32h-32v32zM320 224h-32v32h32v-32z" />
<glyph unicode="&#xe964;" glyph-name="dot-square" d="M512 960c-282.782 0-512-229.218-512-512s229.218-512 512-512 512 229.218 512 512-229.218 512-512 512zM512 16c-238.594 0-432 193.406-432 432s193.406 432 432 432 432-193.406 432-432-193.406-432-432-432zM768 608v96h-96v-32h-320v32h-96v-96h32v-320h-32v-96h96v32h320v-32h96v96h-32v320h32zM704 672h32v-32h-32v32zM288 672h32v-32h-32v32zM320 224h-32v32h32v-32zM736 224h-32v32h32v-32zM704 288h-32v-32h-320v32h-32v320h32v32h320v-32h32v-320z" />
<glyph unicode="&#xe965;" glyph-name="double-diamonds" d="M512 960c-282.782 0-512-229.218-512-512s229.218-512 512-512 512 229.218 512 512-229.218 512-512 512zM512 16c-238.594 0-432 193.406-432 432s193.406 432 432 432 432-193.406 432-432-193.406-432-432-432zM768 448.438l-181.062 191.562-75.344-79.75-74.594 78.906-181-191.562 181-191.594 75.376 79.718 74.562-78.906 181.062 191.626zM534.218 536.312l52.718 55.812 135.812-143.688-135.812-143.718-51.936 54.938 83.062 87.938-83.844 88.718z" />
<glyph unicode="&#xe966;" glyph-name="download-selection-circle" d="M512 960c-282.782 0-512-229.218-512-512s229.218-512 512-512 512 229.218 512 512-229.218 512-512 512zM512 16c-238.594 0-432 193.406-432 432s193.406 432 432 432 432-193.406 432-432-193.406-432-432-432zM607.782 416.078h-63.86v159.656h-63.86v-159.656h-63.844l95.782-95.782zM645.032 267.766c18.906 13.968 35.406 30.718 49.094 49.812l-25.938 18.594c-11.75-16.376-25.938-30.75-42.124-42.75l18.968-25.656zM513.672 255.922l0.296-31.938c23.578 0.188 46.782 4.062 69 11.5l-10.094 30.25c-19.030-6.344-38.92-9.624-59.202-9.812zM642.968 629.734c-19.062 13.75-40.094 24.406-62.438 31.562l-9.782-30.406c19.156-6.124 37.188-15.218 53.532-27.032l18.688 25.876zM724.75 518.36c-7.406 22.282-18.188 43.188-32.156 62.156l-25.688-18.906c11.906-16.282 21.188-34.188 27.532-53.282l30.312 10.032zM695.094 389.796l30.438-9.688c6.938 21.876 10.468 44.75 10.468 67.876v1.218l-31.938-1.218c0-19.874-3-39.468-8.968-58.188zM332.124 314.454l25.656 19.032c-12.094 16.218-21.468 34.124-27.876 53.124l-30.282-10.188c7.472-22.218 18.41-43.062 32.502-61.968zM297.5 446.296l22.438 1.688c0 20.25 3.156 40.156 9.344 59.282l-30.406 9.812c-7.22-22.282-10.876-45.532-10.876-69.718l9.5-1.064zM398.906 603.234l-18.844 25.75c-19.032-13.876-35.656-30.562-49.406-49.532l25.812-18.782c11.814 16.314 26.126 30.596 42.438 42.564zM444.75 234.266l9.624 30.468c-19.188 6.032-37.282 15.032-53.718 26.75l-18.562-26c19.218-13.656 40.312-24.188 62.656-31.218zM511.454 640.11l-0.124 31.906c-23.656-0.094-46.86-3.812-69.078-11.062l9.968-30.344c18.968 6.186 38.904 9.374 59.234 9.5z" />
<glyph unicode="&#xe967;" glyph-name="download-selection" d="M512 960c-282.782 0-512-229.218-512-512s229.218-512 512-512 512 229.218 512 512-229.218 512-512 512zM512 16c-238.594 0-432 193.406-432 432s193.406 432 432 432 432-193.406 432-432-193.406-432-432-432zM703.782 511.938h31.968v-127.876h-31.968v127.876zM688.062 672h-16v-31.968h16c8.782 0 15.968-7.156 15.968-15.968v-16h31.97v16c0 26.436-21.5 47.936-47.938 47.936zM448.078 671.75h127.86v-31.968h-127.86v31.968zM288 624.062l0.25-16.25h31.968l-0.25 16.25c0 8.812 7.156 15.968 15.984 15.968h15.968v31.97h-15.968c-26.452 0-47.952-21.5-47.952-47.938zM288.25 511.938h31.968v-127.876h-31.968v127.876zM319.968 271.938v16h-31.968v-16c0-26.438 21.5-47.938 47.954-47.938h15.968v31.968h-15.968c-8.83 0-15.986 7.188-15.986 15.97zM448.078 256.218h127.86v-31.968h-127.86v31.968zM704.032 271.938c0-8.782-7.188-15.968-15.968-15.968h-16v-31.97h16c26.436 0 47.936 21.5 47.936 47.938v16h-31.968v-16zM544.218 576.25h-63.936l-0.25-160.594h-63.922l95.89-95.874 95.906 95.874-63.718-0.156z" />
<glyph unicode="&#xe968;" glyph-name="download" d="M512 960c-282.782 0-512-229.218-512-512s229.218-512 512-512 512 229.218 512 512-229.218 512-512 512zM512 16c-238.594 0-432 193.406-432 432s193.406 432 432 432 432-193.406 432-432-193.406-432-432-432zM704 320v-64h-384v64h-64v-128h512v128zM544 448v256h-64v-256h-96l128-160 128 160z" />
<glyph unicode="&#xe969;" glyph-name="drop" d="M512 960c-282.782 0-512-229.218-512-512s229.218-512 512-512 512 229.218 512 512-229.218 512-512 512zM512 16c-238.594 0-432 193.406-432 432s193.406 432 432 432 432-193.406 432-432-193.406-432-432-432zM512 704c-32-96-160-263.624-160-352s71.624-160 160-160 160 71.624 160 160-128 256-160 352zM512 256c-55.25 0-100 44.812-100 100 0 55.25 80 160 100 220 20-60 100-164.75 100-220 0-55.188-44.812-100-100-100z" />
<glyph unicode="&#xe96a;" glyph-name="drops" d="M512 960c-282.782 0-512-229.218-512-512s229.218-512 512-512 512 229.218 512 512-229.218 512-512 512zM512 16c-238.594 0-432 193.406-432 432s193.406 432 432 432 432-193.406 432-432-193.406-432-432-432zM608 352c0-88.376-71.624-160-160-160s-160 71.624-160 160 128 256 160 352c32-96 160-263.624 160-352zM736 572c0-33.124-28.688-60-64-60s-64 26.876-64 60 51.188 96 64 132c12.812-36 64-98.876 64-132z" />
<glyph unicode="&#xe96b;" glyph-name="eject" d="M512 960c-282.782 0-512-229.218-512-512s229.218-512 512-512 512 229.218 512 512-229.218 512-512 512zM512 16c-238.594 0-432 193.406-432 432s193.406 432 432 432 432-193.406 432-432-193.406-432-432-432zM352 416h320l-160 192zM352 352h320v-64h-320v64z" />
<glyph unicode="&#xe96c;" glyph-name="email-add" d="M512 960c-282.782 0-512-229.218-512-512s229.218-512 512-512 512 229.218 512 512-229.218 512-512 512zM512 16c-238.594 0-432 193.406-432 432s193.406 432 432 432 432-193.406 432-432-193.406-432-432-432zM736 491.25v-148.876l-109 118.844 33.438 22.624c-11.968 3.062-23.282 7.844-33.376 14.406l-115.062-81.748-179.438 127.5h254.688c-4.782 32-8 32-9.624 32h-321.626v-320h512v257.876c-9.156-9.376-20.062-16.938-32-22.626zM288 534.938l109-73.718-109-118.844v192.562zM512 288h-184.812l91.124 158.844 93.688-63.344 93.688 63.312 91.124-158.812h-184.812zM688 672c-44.188 0-80-35.812-80-80s35.812-80 80-80 80 35.812 80 80-35.812 80-80 80zM736 576h-32v-32h-32v32h-32v32h32v32h32v-32h32v-32z" />
<glyph unicode="&#xe96d;" glyph-name="email-close" d="M512 960c-282.782 0-512-229.218-512-512s229.218-512 512-512 512 229.218 512 512-229.218 512-512 512zM512 16c-238.594 0-432 193.406-432 432s193.406 432 432 432 432-193.406 432-432-193.406-432-432-432zM736 491.25v-148.876l-109 118.844 33.438 22.624c-11.968 3.062-23.282 7.844-33.376 14.406l-115.062-81.748-179.438 127.5h254.688c-4.782 9.968-8 20.688-9.624 32h-321.626v-320h512v257.876c-9.156-9.376-20.062-16.938-32-22.626zM288 534.938l109-73.718-109-118.844v192.562zM512 288h-184.812l91.124 158.844 93.688-63.344 93.688 63.344 91.124-158.844h-184.812zM688 672c-44.188 0-80-35.812-80-80s35.812-80 80-80 80 35.812 80 80-35.812 80-80 80zM733.25 569.376l-22.624-22.624-22.626 22.624-22.624-22.624-22.624 22.624 22.624 22.624-22.624 22.624 22.624 22.624 22.624-22.624 22.624 22.624 22.624-22.624-22.624-22.624 22.626-22.624z" />
<glyph unicode="&#xe96e;" glyph-name="email-download" d="M512 960c-282.782 0-512-229.218-512-512s229.218-512 512-512 512 229.218 512 512-229.218 512-512 512zM512 16c-238.594 0-432 193.406-432 432s193.406 432 432 432 432-193.406 432-432-193.406-432-432-432zM736 491.25v-148.876l-109 118.844 33.438 22.624c-11.968 3.062-23.282 7.844-33.376 14.406l-115.062-81.748-179.438 127.5h254.688c-4.782 9.968-8 20.688-9.624 32h-321.626v-320h512v257.876c-9.156-9.376-20.062-16.938-32-22.626zM288 534.938l109-73.718-109-118.844v192.562zM512 288h-184.812l91.124 158.844 93.688-63.344 93.688 63.344 91.124-158.844h-184.812zM688 672c-44.188 0-80-35.812-80-80s35.812-80 80-80 80 35.812 80 80-35.812 80-80 80zM688 531.188l-38.406 44.812h22.406v64h32v-64h22.406l-38.406-44.812z" />
<glyph unicode="&#xe96f;" glyph-name="email-luminosity" d="M512 960c-282.782 0-512-229.218-512-512s229.218-512 512-512 512 229.218 512 512-229.218 512-512 512zM512 16c-238.594 0-432 193.406-432 432s193.406 432 432 432 432-193.406 432-432-193.406-432-432-432zM496 672h32v-64h-32v64zM496 288h32v-64h-32v64zM659.060 617.694l22.624-22.624-45.25-45.25-22.624 22.624 45.25 45.25zM364.936 278.306l-22.624 22.624 45.25 45.25 22.624-22.624-45.25-45.25zM364.938 617.692l45.25-45.25-22.624-22.624-45.25 45.25 22.624 22.624zM659.062 278.305l-45.25 45.25 22.624 22.624 45.25-45.25-22.624-22.624zM288 464h64v-32h-64v32zM672 464h64v-32h-64v32zM512 576c-70.594 0-128-57.438-128-128s57.406-128 128-128c70.562 0 128 57.438 128 128s-57.438 128-128 128zM512 352v192c52.938 0 96-43.062 96-96s-43.062-96-96-96z" />
<glyph unicode="&#xe970;" glyph-name="email-remove" d="M512 960c-282.782 0-512-229.218-512-512s229.218-512 512-512 512 229.218 512 512-229.218 512-512 512zM512 16c-238.594 0-432 193.406-432 432s193.406 432 432 432 432-193.406 432-432-193.406-432-432-432zM736 491.25v-148.876l-109 118.844 33.438 22.624c-11.968 3.062-23.282 7.844-33.376 14.406l-115.062-81.748-179.438 127.5h254.688c-4.782 32-8 32-9.624 32h-321.626v-320h512v257.876c-9.156-9.376-20.062-16.938-32-22.626zM288 534.938l109-73.718-109-118.844v192.562zM512 288h-184.812l91.124 158.844 93.688-63.344 93.688 63.312 91.124-158.812h-184.812zM688 672c-44.188 0-80-35.812-80-80s35.812-80 80-80 80 35.812 80 80-35.812 80-80 80zM736 576h-96v32h96v-32z" />
<glyph unicode="&#xe971;" glyph-name="email-spam" d="M512 960c-282.782 0-512-229.218-512-512s229.218-512 512-512 512 229.218 512 512-229.218 512-512 512zM512 16c-238.594 0-432 193.406-432 432s193.406 432 432 432 432-193.406 432-432-193.406-432-432-432zM736 491.25v-148.876l-109 118.844 33.438 22.624c-11.968 3.062-23.282 7.844-33.376 14.406l-115.062-81.748-179.438 127.5h254.688c-4.782 9.968-8 20.688-9.624 32h-321.626v-320h512v257.876c-9.156-9.376-20.062-16.938-32-22.626zM288 534.938l109-73.718-109-118.844v192.562zM512 288h-184.812l91.124 158.844 93.688-63.344 93.688 63.344 91.124-158.844h-184.812zM768 592c0 44.188-35.876 80-80 80s-80-35.812-80-80c0-44.124 35.876-80 80-80s80 35.876 80 80zM628 592c0 33.094 26.938 60 60 60 12.876 0 24.938-4.188 34.75-11.124l-83.562-83.624c-7.032 9.81-11.188 21.872-11.188 34.748zM653.25 543.188l83.562 83.532c7.064-9.814 11.188-21.844 11.188-34.72 0-33.062-26.938-60-60-60-12.876 0-24.938 4.124-34.75 11.188z" />
<glyph unicode="&#xe972;" glyph-name="email-upload" d="M512 960c-282.782 0-512-229.218-512-512s229.218-512 512-512 512 229.218 512 512-229.218 512-512 512zM512 16c-238.594 0-432 193.406-432 432s193.406 432 432 432 432-193.406 432-432-193.406-432-432-432zM736 491.25v-148.876l-109 118.844 33.438 22.624c-11.968 3.062-23.282 7.844-33.376 14.406l-115.062-81.748-179.438 127.5h254.688c-4.782 9.968-8 20.688-9.624 32h-321.626v-320h512v257.876c-9.156-9.376-20.062-16.938-32-22.626zM288 534.938l109-73.718-109-118.844v192.562zM512 288h-184.812l91.124 158.844 93.688-63.344 93.688 63.344 91.124-158.844h-184.812zM688 512c44.188 0 80 35.812 80 80s-35.812 80-80 80-80-35.812-80-80 35.812-80 80-80zM688 652.812l38.406-44.812h-22.406v-64h-32v64h-22.406l38.406 44.812z" />
<glyph unicode="&#xe973;" glyph-name="euro" d="M512 960c-282.782 0-512-229.218-512-512s229.218-512 512-512 512 229.218 512 512-229.218 512-512 512zM512 16c-238.594 0-432 193.406-432 432s193.406 432 432 432 432-193.406 432-432-193.406-432-432-432zM555.438 192c-69.312 0-131.782 27.468-172.188 78.468-24.376 28.218-41.124 66.344-48 112.75h-48.75v47.282h42.688c0 3.812 0 7.562 0 11.438 0 9.876 0.75 19.782 1.5 28.156h-44.188v47.218h51.062c9.124 47.25 29.718 86.124 57.124 115.812 41.126 44.97 96.752 70.876 164.626 70.876 45.688 0 83.812-11.438 108.876-23.624l-19-70.094c-19.812 9.906-51 19.812-85.312 19.812-38.124 0-71.624-13.718-96.812-41.906-15.938-16.75-27.376-41.876-33.5-70.876h199.562v-47.218h-208.72c-1.532-8.376-1.532-17.532-1.532-27.438 0-4.594 0-7.624 0-12.156h210.25v-47.282h-201.874c5.376-31.968 16.782-57.156 32.75-73.906 25.938-28.188 62.5-41.156 102.124-41.156 37.312 0 72.376 12.968 89.938 22.094l15.938-67.812c-25.124-15.188-67.75-30.438-116.562-30.438z" />
<glyph unicode="&#xe974;" glyph-name="exclamation" d="M512 960c-282.782 0-512-229.218-512-512s229.218-512 512-512 512 229.218 512 512-229.218 512-512 512zM512 16c-238.594 0-432 193.406-432 432s193.406 432 432 432 432-193.406 432-432-193.406-432-432-432zM480 490.688l12.468-170.688h39.094l12.438 172.25v211.75h-64zM480 256h64v-64h-64v64z" />
<glyph unicode="&#xe975;" glyph-name="expand-directions" d="M512 960c-282.782 0-512-229.218-512-512s229.218-512 512-512 512 229.218 512 512-229.218 512-512 512zM512 16c-238.594 0-432 193.406-432 432s193.406 432 432 432 432-193.406 432-432-193.406-432-432-432zM384 544h256v-192h-256v192zM352 383.968v128.032l-64-64zM672 383.968l64.032 64.032-64.032 64zM512.032 639.968l-64.032-63.968h128.032zM511.968 256.032l64.032 63.968h-128.032z" />
<glyph unicode="&#xe976;" glyph-name="expand-horizontal" d="M512 960c-282.782 0-512-229.218-512-512s229.218-512 512-512 512 229.218 512 512-229.218 512-512 512zM512 16c-238.594 0-432 193.406-432 432s193.406 432 432 432 432-193.406 432-432-193.406-432-432-432zM384 544h256v-192h-256v192zM352 383.968v128.032l-64-64zM672 383.968l64.032 64.032-64.032 64z" />
<glyph unicode="&#xe977;" glyph-name="expand-vertical" d="M512 960c-282.782 0-512-229.218-512-512s229.218-512 512-512 512 229.218 512 512-229.218 512-512 512zM512 16c-238.594 0-432 193.406-432 432s193.406 432 432 432 432-193.406 432-432-193.406-432-432-432zM384 544h256v-192h-256v192zM512 640l-64-64h128zM512 255.938l64 64.062h-128z" />
<glyph unicode="&#xe978;" glyph-name="expand" d="M512 960c-282.782 0-512-229.188-512-512 0-282.75 229.218-512 512-512s512 229.25 512 512c0 282.812-229.218 512-512 512zM512 16c-238.594 0-432 193.438-432 432 0 238.624 193.406 432 432 432s432-193.376 432-432c0-238.562-193.406-432-432-432zM768 575.624v128.376h-129.438l34-34-161.624-161.624-161.814 161.686 33.814 33.938h-126.938v-128.624l33.532 34.186 161.344-161.562-161.376-161.844-33.5 34.032v-128.188h126.812l-33.75 33.844 161.876 161.78 161.686-161.624-34.062-34h129.438v128l-34.406-33.812-161.75 161.812 161.624 161.624z" />
<glyph unicode="&#xe979;" glyph-name="eye-disabled" d="M671.156 516.624l-193.718-193.75c11.156-1.686 22.562-2.874 34.562-2.874 141.376 0 224 128 224 128s-22.906 35.124-64.844 68.624zM352.906 379.344l193.718 193.75c-11.156 1.688-22.624 2.906-34.624 2.906-141.376 0-224-128-224-128s22.906-35.188 64.906-68.656zM288 272l44.812-48 403.188 403.204-44.812 44.796zM512 960c-282.782 0-512-229.218-512-512s229.218-512 512-512 512 229.218 512 512-229.218 512-512 512zM512 16c-238.594 0-432 193.406-432 432s193.406 432 432 432 432-193.406 432-432-193.406-432-432-432z" />
<glyph unicode="&#xe97a;" glyph-name="eye" d="M512 576c-141.376 0-224-128-224-128s82.624-128 224-128 224 128 224 128-82.624 128-224 128zM512 384.5c-35.344 0-64 28.438-64 63.5s28.656 63.5 64 63.5 63.968-28.438 63.968-63.5-28.624-63.5-63.968-63.5zM512 960c-282.782 0-512-229.218-512-512s229.218-512 512-512 512 229.218 512 512-229.218 512-512 512zM512 16c-238.594 0-432 193.406-432 432s193.406 432 432 432 432-193.406 432-432-193.406-432-432-432z" />
<glyph unicode="&#xe97b;" glyph-name="female-symbol" d="M512 960c-282.782 0-512-229.218-512-512s229.218-512 512-512 512 229.218 512 512-229.218 512-512 512zM512 16c-238.594 0-432 193.406-432 432s193.406 432 432 432 432-193.406 432-432-193.406-432-432-432zM576 640c0-35.346-28.654-64-64-64s-64 28.654-64 64c0 35.346 28.654 64 64 64s64-28.654 64-64zM608 544h-192v-128h32l-32-192h64v-32h63.5l0.5 32h64l-32 192h32z" />
<glyph unicode="&#xe97c;" glyph-name="fire" d="M512 960c-282.782 0-512-229.218-512-512s229.218-512 512-512 512 229.218 512 512-229.218 512-512 512zM512 16c-238.594 0-432 193.406-432 432s193.406 432 432 432 432-193.406 432-432-193.406-432-432-432zM461.678 704c0 0 190.968-128 168.532-304 0 0 64.094 16 46.876 121.876 0 0 92.468-89.218 90.906-169.876-1.282-65.532-83.282-160-237.5-160 0 0 139.062 124.376-44.688 281.75 0 0-169.968-167.688-57.812-281.75 0 0-226.156 57.532-159.812 201.594 66.342 144.094 211.466 156.812 193.498 310.406z" />
<glyph unicode="&#xe97d;" glyph-name="forward" d="M512 960c-282.782 0-512-229.218-512-512s229.218-512 512-512 512 229.218 512 512-229.218 512-512 512zM512 16c-238.594 0-432 193.406-432 432s193.406 432 432 432 432-193.406 432-432-193.406-432-432-432zM352 288l192 160-192 160zM544 448v-160l192 160-192 160z" />
<glyph unicode="&#xe97e;" glyph-name="graphs" d="M512 960c-282.782 0-512-229.218-512-512s229.218-512 512-512 512 229.218 512 512-229.218 512-512 512zM512 16c-238.594 0-432 193.406-432 432s193.406 432 432 432 432-193.406 432-432-193.406-432-432-432zM704 704c-35.25 0-64-28.688-64-64 0-23.876 13.282-44.5 32.75-55.5l-60.75-200.876c-1.312 0.094-2.624 0.376-4 0.376-10.782 0-20.812-2.938-29.75-7.718l-71.562 78.344c3.374 7.812 5.312 16.374 5.312 25.374 0 35.312-28.688 64-64 64s-64-28.688-64-64c0-17.344 7-33.032 18.218-44.562l-67.718-117.218c-4.688 1.030-9.5 1.78-14.5 1.78-35.312 0-64-28.75-64-64s28.688-64 64-64 64 28.75 64 64c0 18.75-8.25 35.5-21.188 47.25l66.876 115.75c5.812-1.75 11.938-3 18.312-3 14.532 0 27.782 5.062 38.532 13.25l67.906-74.406c-6.562-10.062-10.438-21.968-10.438-34.844 0-35.25 28.718-64 64-64 35.25 0 64 28.75 64 64 0 22.624-11.812 42.376-29.562 53.75l61.124 202.312c0.156 0 0.25-0.062 0.438-0.062 35.25 0 64 28.688 64 64s-28.75 64-64 64zM320 224c-17.688 0-32 14.282-32 32s14.312 32 32 32 32-14.282 32-32-14.312-32-32-32zM448 448c-17.688 0-32 14.312-32 32s14.312 32 32 32 32-14.312 32-32-14.312-32-32-32zM608 288c-17.718 0-32 14.282-32 32s14.282 32 32 32 32-14.282 32-32-14.282-32-32-32zM704 608c-17.718 0-32 14.312-32 32s14.282 32 32 32 32-14.312 32-32-14.282-32-32-32z" />
<glyph unicode="&#xe97f;" glyph-name="grid-big" d="M512 960c-282.782 0-512-229.218-512-512s229.218-512 512-512 512 229.218 512 512-229.218 512-512 512zM512 16c-238.594 0-432 193.406-432 432s193.406 432 432 432 432-193.406 432-432-193.406-432-432-432zM256 704h224v-224h-224v224zM256 416h224v-224h-224v224zM544 704h224v-224h-224v224zM544 416h224v-224h-224v224z" />
<glyph unicode="&#xe980;" glyph-name="grids" d="M512 960c-282.782 0-512-229.218-512-512s229.218-512 512-512 512 229.218 512 512-229.218 512-512 512zM512 16c-238.594 0-432 193.406-432 432s193.406 432 432 432 432-193.406 432-432-193.406-432-432-432zM288 672h128v-128h-128v128zM448 672h128v-128h-128v128zM608 672h128v-128h-128v128zM608 512h128v-128h-128v128zM608 352h128v-128h-128v128zM448 352h128v-128h-128v128zM288 352h128v-128h-128v128zM288 512h128v-128h-128v128zM448 512h128v-128h-128v128z" />
<glyph unicode="&#xe981;" glyph-name="hdd-net" d="M512 960c-282.782 0-512-229.218-512-512s229.218-512 512-512c282.782 0 512 229.218 512 512s-229.218 512-512 512zM512 16c-238.594 0-432 193.406-432 432s193.406 432 432 432 432-193.406 432-432-193.406-432-432-432zM728.844 594.312l-49.688 99.376c-3.938 7.874-14.344 14.312-23.156 14.312h-288c-8.796 0-19.218-6.438-23.156-14.312l-49.688-99.376c-3.938-7.874-7.156-21.5-7.156-30.312v-64c0-8.812 7.204-16 16-16h416c8.812 0 16 7.188 16 16v64c0 8.812-3.218 22.438-7.156 30.312zM336 516c-8.796 0-16 7.188-16 16s7.204 16 16 16 16-7.188 16-16-7.204-16-16-16zM400 516c-8.796 0-16 7.188-16 16s7.204 16 16 16 16-7.188 16-16-7.204-16-16-16zM464 516c-8.796 0-16 7.188-16 16s7.204 16 16 16 16-7.188 16-16-7.204-16-16-16zM688 516c-8.812 0-16 7.188-16 16s7.188 16 16 16 16-7.188 16-16-7.188-16-16-16zM720 452h-416c-8.796 0-16-7.188-16-16v-64c0-8.812 7.204-16 16-16h128c8.796 0 23.204 0 32 0 4.406 0 10.204 0 16 0v-96h-128v-64h320v64h-128v96c5.812 0 11.594 0 16 0 8.812 0 23.188 0 32 0h128c8.812 0 16 7.188 16 16v64c0 8.812-7.188 16-16 16zM336 388c-8.796 0-16 7.188-16 16s7.204 16 16 16 16-7.188 16-16-7.204-16-16-16zM400 388c-8.796 0-16 7.188-16 16s7.204 16 16 16 16-7.188 16-16-7.204-16-16-16zM464 388c-8.796 0-16 7.188-16 16s7.204 16 16 16 16-7.188 16-16-7.204-16-16-16zM688 388c-8.812 0-16 7.188-16 16s7.188 16 16 16 16-7.188 16-16-7.188-16-16-16zM288 260h32v-64h-32v64zM704 260h32v-64h-32v64z" />
<glyph unicode="&#xe982;" glyph-name="hdd-raid" d="M512 960c-282.782 0-512-229.218-512-512s229.218-512 512-512 512 229.218 512 512-229.218 512-512 512zM512 16c-238.594 0-432 193.406-432 432s193.406 432 432 432 432-193.406 432-432-193.406-432-432-432zM677.938 689.124c-3.25 8.188-13.126 14.876-21.938 14.876h-288c-8.796 0-18.672-6.688-21.938-14.876l-52.124-130.25c-3.266-8.186-5.938-22.062-5.938-30.874v-64c0-8.812 7.204-16 16-16h416c8.812 0 16 7.188 16 16v64c0 8.812-2.688 22.688-5.938 30.876l-52.124 130.248zM352 496c0-8.812-7.204-16-16-16v0c-8.796 0-16 7.188-16 16v0c0 8.812 7.204 16 16 16v0c8.796 0 16-7.188 16-16v0zM416 496c0-8.812-7.204-16-16-16v0c-8.796 0-16 7.188-16 16v0c0 8.812 7.204 16 16 16v0c8.796 0 16-7.188 16-16v0zM480 496c0-8.812-7.204-16-16-16v0c-8.796 0-16 7.188-16 16v0c0 8.812 7.204 16 16 16v0c8.796 0 16-7.188 16-16v0zM704 496c0-8.812-7.188-16-16-16v0c-8.812 0-16 7.188-16 16v0c0 8.812 7.188 16 16 16v0c8.812 0 16-7.188 16-16v0zM288 336c0-8.812 7.204-16 16-16h416c8.812 0 16 7.188 16 16v64c0 8.812-7.188 16-16 16h-416c-8.796 0-16-7.188-16-16v-64zM672 368c0 8.812 7.188 16 16 16v0c8.812 0 16-7.188 16-16v0c0-8.812-7.188-16-16-16v0c-8.812 0-16 7.188-16 16v0zM448 368c0 8.812 7.204 16 16 16v0c8.796 0 16-7.188 16-16v0c0-8.812-7.204-16-16-16v0c-8.796 0-16 7.188-16 16v0zM384 368c0 8.812 7.204 16 16 16v0c8.796 0 16-7.188 16-16v0c0-8.812-7.204-16-16-16v0c-8.796 0-16 7.188-16 16v0zM320 368c0 8.812 7.204 16 16 16v0c8.796 0 16-7.188 16-16v0c0-8.812-7.204-16-16-16v0c-8.796 0-16 7.188-16 16v0zM288 208c0-8.812 7.204-16 16-16h416c8.812 0 16 7.188 16 16v64c0 8.812-7.188 16-16 16h-416c-8.796 0-16-7.188-16-16v-64zM672 240c0 8.812 7.188 16 16 16v0c8.812 0 16-7.188 16-16v0c0-8.812-7.188-16-16-16v0c-8.812 0-16 7.188-16 16v0zM448 240c0 8.812 7.204 16 16 16v0c8.796 0 16-7.188 16-16v0c0-8.812-7.204-16-16-16v0c-8.796 0-16 7.188-16 16v0zM384 240c0 8.812 7.204 16 16 16v0c8.796 0 16-7.188 16-16v0c0-8.812-7.204-16-16-16v0c-8.796 0-16 7.188-16 16v0zM320 240c0 8.812 7.204 16 16 16v0c8.796 0 16-7.188 16-16v0c0-8.812-7.204-16-16-16v0c-8.796 0-16 7.188-16 16v0z" />
<glyph unicode="&#xe983;" glyph-name="hdd" d="M512 960c-282.782 0-512-229.218-512-512s229.218-512 512-512 512 229.218 512 512-229.218 512-512 512zM512 16c-238.594 0-432 193.406-432 432s193.406 432 432 432 432-193.406 432-432-193.406-432-432-432zM734.438 399.906l-25.188 256.156c-0.844 8.782-8.75 15.938-17.562 15.938h-352.5c-8.812 0-16.876-7.156-17.938-15.876l-31.312-256.282c-1.062-8.718-1.938-23.062-1.938-31.876v-127.966c0-8.812 7.188-16 16-16h416c8.812 0 16 7.188 16 16v127.968c0 8.814-0.718 23.156-1.562 31.938zM704 272c0-8.812-7.188-16-16-16h-352c-8.812 0-16 7.188-16 16v64c0 8.812 7.188 16 16 16h352c8.812 0 16-7.188 16-16v-64zM659.188 320h-288c-8.812 0-16-7.188-16-16.032 0-8.876 7.188-15.968 16-15.968h288c8.876 0 15.968 7.094 15.968 15.968 0 8.844-7.094 16.032-15.968 16.032z" />
<glyph unicode="&#xe984;" glyph-name="heart" d="M621.5 672c-43.75 0-82.75-20.156-109.5-51.532-27 31.376-66 51.532-109.75 51.532-80.75 0-146.25-66.844-146.25-149.25 0-186.75 256-298.75 256-298.75s256 112 256 298.75c0 82.406-65.5 149.25-146.5 149.25zM512 960c-282.782 0-512-229.218-512-512s229.218-512 512-512 512 229.218 512 512-229.218 512-512 512zM512 16c-238.594 0-432 193.406-432 432s193.406 432 432 432 432-193.406 432-432-193.406-432-432-432z" />
<glyph unicode="&#xe985;" glyph-name="home-wifi" d="M512 960c-282.782 0-512-229.218-512-512s229.218-512 512-512 512 229.218 512 512-229.218 512-512 512zM512 16c-238.594 0-432 193.406-432 432s193.406 432 432 432 432-193.406 432-432-193.406-432-432-432zM512.016 512c-35.344 0-64-28.624-64-64 0-35.344 28.656-64 64-64 35.328 0 63.984 28.656 63.984 64 0 35.376-28.656 64-63.984 64zM609.75 554.624l-36.032-27.062c25.5-17.25 42.282-46.438 42.282-79.562s-16.782-62.282-42.282-79.532l36.032-27.062c30.438 25.688 50.25 63.688 50.25 106.594 0 42.938-19.812 80.938-50.25 106.624zM697.688 620.812l-35.5-26.688c38.062-37.062 61.812-88.812 61.812-146.124s-23.75-109.062-61.812-146.094l35.5-26.718c43.436 44.718 70.312 105.562 70.312 172.812s-26.876 128.124-70.312 172.812zM408.016 446.938c0.438 33.124 17.562 62.124 43.312 79.032l-35.688 27.53c-30.75-25.312-51.062-63.032-51.624-106-0.562-42.938 18.75-81.156 48.876-107.25l36.376 26.594c-25.284 17.532-41.69 46.968-41.252 80.094zM363.734 593.688l-35.156 27.124c-44-44.124-71.688-104.624-72.562-171.876-0.876-67.282 25.25-128.468 68.062-173.75l35.876 26.25c-37.624 37.562-60.688 89.594-59.938 146.906 0.75 57.346 25.188 108.782 63.718 145.346z" />
<glyph unicode="&#xe986;" glyph-name="idea" d="M512 960c-282.782 0-512-229.218-512-512s229.218-512 512-512 512 229.218 512 512-229.218 512-512 512zM512 16c-238.594 0-432 193.406-432 432s193.406 432 432 432 432-193.406 432-432-193.406-432-432-432zM512 192c35.344 0 64 28.656 64 64h-128c0-35.344 28.656-64 64-64zM512 704c-106.032 0-192-85.968-192-192 0-75.562 43.75-140.75 107.25-172.062l20.75-51.938h128l20.75 51.938c63.468 31.312 107.25 96.5 107.25 172.062 0 106.032-85.968 192-192 192z" />
<glyph unicode="&#xe987;" glyph-name="info" d="M570.344 297.094c-24.906-26.5-41.094-37.562-52.188-37.562-7.718 0-10.344 6.844-8.624 22.282 5.188 40.124 35.062 169.156 43.562 215.25 8.532 39.438 6 59.906-5.124 59.906-21.282 0-73.468-35.032-107.656-70.032-1.75-2.688-5.124-17.156-3.376-22.25 0-1.75 2.532-2.624 2.532-2.624 20.532 16.25 36.782 25.688 46.218 25.688 4.218 0 5.876-6.812 3.376-18.812-10.25-51.25-27.344-130.812-40.156-196.562-11.968-57.344-4.344-80.376 13.624-80.376s67.532 23.968 107.812 77.812c1.624 4.188 3.282 20.376 2.5 24.718 0 1.656-2.5 2.562-2.5 2.562zM562.562 704c-14.594 0-32.5-6.828-41.032-15.406-3.376-4.282-6.812-17.078-7.718-23.89 0.906-15.422 5.156-23.968 13.718-29.124 4.218-3.36 32.438-0.828 38.438 2.624 10.376 6.796 19.656 20.5 21.406 36.75 0.75 7.64-0.876 17.968-4.282 23.062-1.716 2.546-8.592 5.984-20.53 5.984zM512 960c-282.782 0-512-229.218-512-512s229.218-512 512-512 512 229.218 512 512-229.218 512-512 512zM512 16c-238.594 0-432 193.406-432 432s193.406 432 432 432 432-193.406 432-432-193.406-432-432-432z" />
<glyph unicode="&#xe988;" glyph-name="italic" d="M512 960c-282.782 0-512-229.218-512-512s229.218-512 512-512 512 229.218 512 512-229.218 512-512 512zM512 16c-238.594 0-432 193.406-432 432s193.406 432 432 432 432-193.406 432-432-193.406-432-432-432zM545.124 236.218l-3.092-12.218h-158.032l3.968 12.218c15.844 0.438 26.344 2 31.438 4.624 8.282 3.75 14.438 8.938 18.406 15.532 6.218 10.344 12.624 28.844 19.25 55.5l66.812 270.25c5.688 22.5 8.5 39.438 8.5 50.876 0 5.75-1.25 10.594-3.656 14.562-2.468 3.938-6.188 7-11.188 9.062-5.032 2.124-14.782 3.156-29.344 3.156l3.438 12.218h148.376l-3.124-12.218c-12.062 0.218-21.032-1.344-26.906-4.624-8.468-4.406-14.968-10.688-19.376-18.844-4.468-8.124-10.156-26.188-17.156-54.188l-66.532-270.25c-6.032-24.876-9.062-40.75-9.062-47.562 0-5.5 1.156-10.188 3.532-14.062 2.376-3.844 6.156-6.812 11.312-8.906 5.188-2.094 16.030-3.812 32.436-5.126z" />
<glyph unicode="&#xe989;" glyph-name="key" d="M512 960c-282.782 0-512-229.218-512-512s229.218-512 512-512 512 229.218 512 512-229.218 512-512 512zM512 16c-238.594 0-432 193.406-432 432s193.406 432 432 432 432-193.406 432-432-193.406-432-432-432zM507.468 480c-14.282 55.124-63.906 96-123.468 96-70.688 0-128-57.312-128-128s57.312-128 128-128c59.562 0 109.188 40.906 123.468 96h164.532v-64h64v64h32v64h-260.532zM384 368c-44.188 0-80 35.844-80 80 0 44.188 35.812 80 80 80s80-35.812 80-80c0-44.156-35.812-80-80-80z" />
<glyph unicode="&#xe98a;" glyph-name="landscape" d="M512 960c-282.782 0-512-229.218-512-512s229.218-512 512-512 512 229.218 512 512-229.218 512-512 512zM512 16c-238.594 0-432 193.406-432 432s193.406 432 432 432 432-193.406 432-432-193.406-432-432-432zM512 640l-256-384h512l-256 384zM512 448l-32-32-32 64 64 96 64-96h-32l-32-32z" />
<glyph unicode="&#xe98b;" glyph-name="layers" d="M512 960c-282.782 0-512-229.218-512-512s229.218-512 512-512 512 229.218 512 512-229.218 512-512 512zM512 16c-238.594 0-432 193.406-432 432s193.406 432 432 432 432-193.406 432-432-193.406-432-432-432zM512 249.562l-209.938 131.188-46.062-28.75 256-160 256 159.5-46.062 28.876zM512 346.282l-208.812 130.5-47.188-29.5 256-160 256 159.5-47.218 29.624zM256 544l256-160 256 159.5-256 160.5z" />
<glyph unicode="&#xe98c;" glyph-name="leaf" d="M512 960c-282.782 0-512-229.218-512-512s229.218-512 512-512 512 229.218 512 512-229.218 512-512 512zM512 16c-238.594 0-432 193.406-432 432s193.406 432 432 432 432-193.406 432-432-193.406-432-432-432zM448 576c-80.578-64.438-93.484-200.656-95.562-242.906-19.484-19.938-64.438-67.032-64.438-77.094 0-12.812 16-32 32-32 13.75 0 41.64 70.812 49.218 90.718 44.624-12.124 167.218-34.876 254.782 50.094 108.812 105.594 112 307.188 112 307.188s-192-19.188-288-96z" />
<glyph unicode="&#xe98d;" glyph-name="left-right" d="M512 960c-282.782 0-512-229.218-512-512s229.218-512 512-512 512 229.218 512 512-229.218 512-512 512zM512 16c-238.594 0-432 193.406-432 432s193.406 432 432 432 432-193.406 432-432-193.406-432-432-432zM608 480h-192v64l-96-96 96-96v64h192v-64l96 96-96 96zM736 576h32v-256h-32v256zM256 576h32v-256h-32v256z" />
<glyph unicode="&#xe98e;" glyph-name="like-add" d="M688 384c9.562 0 18.656-1.562 27.532-3.844 30.592 40.72 52.468 88.406 52.468 142.594 0 82.406-65.5 149.25-146.5 149.25-43.75 0-82.75-20.156-109.5-51.532-27 31.376-66 51.532-109.75 51.532-80.75 0-146.25-66.844-146.25-149.25 0-186.75 256-298.75 256-298.75s28 12.406 65.282 35.376c-0.47 4.218-1.282 8.312-1.282 12.624 0 61.75 50.25 112 112 112zM512 960c-282.782 0-512-229.218-512-512s229.218-512 512-512 512 229.218 512 512-229.218 512-512 512zM512 16c-238.594 0-432 193.406-432 432s193.406 432 432 432 432-193.406 432-432-193.406-432-432-432zM688 352c-44.188 0-80-35.812-80-80s35.812-80 80-80 80 35.812 80 80-35.812 80-80 80zM736 256h-32v-32h-32v32h-32v32h32v32h32v-32h32v-32z" />
<glyph unicode="&#xe98f;" glyph-name="like-ban" d="M688 384c9.562 0 18.656-1.562 27.532-3.844 30.592 40.72 52.468 88.406 52.468 142.594 0 82.406-65.5 149.25-146.5 149.25-43.75 0-82.75-20.156-109.5-51.532-27 31.376-66 51.532-109.75 51.532-80.75 0-146.25-66.844-146.25-149.25 0-186.75 256-298.75 256-298.75s28 12.406 65.282 35.376c-0.47 4.218-1.282 8.312-1.282 12.624 0 61.75 50.25 112 112 112zM512 960c-282.782 0-512-229.218-512-512s229.218-512 512-512 512 229.218 512 512-229.218 512-512 512zM512 16c-238.594 0-432 193.406-432 432s193.406 432 432 432 432-193.406 432-432-193.406-432-432-432zM768 272c0 44.188-35.876 80-80 80s-80-35.812-80-80c0-44.124 35.876-80 80-80s80 35.876 80 80zM628 272c0 33.094 26.938 60 60 60 12.876 0 24.938-4.188 34.75-11.124l-83.562-83.624c-7.032 9.81-11.188 21.872-11.188 34.748zM653.25 223.188l83.562 83.532c7.064-9.814 11.188-21.844 11.188-34.72 0-33.062-26.938-60-60-60-12.876 0-24.938 4.124-34.75 11.188z" />
<glyph unicode="&#xe990;" glyph-name="like-close" d="M688 384c9.562 0 18.656-1.562 27.532-3.844 30.592 40.72 52.468 88.406 52.468 142.594 0 82.406-65.5 149.25-146.5 149.25-43.75 0-82.75-20.156-109.5-51.532-27 31.376-66 51.532-109.75 51.532-80.75 0-146.25-66.844-146.25-149.25 0-186.75 256-298.75 256-298.75s28 12.406 65.282 35.376c-0.47 4.218-1.282 8.312-1.282 12.624 0 61.75 50.25 112 112 112zM512 960c-282.782 0-512-229.218-512-512s229.218-512 512-512 512 229.218 512 512-229.218 512-512 512zM512 16c-238.594 0-432 193.406-432 432s193.406 432 432 432 432-193.406 432-432-193.406-432-432-432zM688 352c-44.188 0-80-35.812-80-80s35.812-80 80-80 80 35.812 80 80-35.812 80-80 80zM733.25 249.376l-22.624-22.624-22.626 22.624-22.624-22.624-22.624 22.624 22.624 22.624-22.624 22.624 22.624 22.624 22.624-22.624 22.624 22.624 22.624-22.624-22.624-22.624 22.626-22.624z" />
<glyph unicode="&#xe991;" glyph-name="like-download" d="M688 384c9.562 0 18.656-1.562 27.532-3.844 30.592 40.72 52.468 88.406 52.468 142.594 0 82.406-65.5 149.25-146.5 149.25-43.75 0-82.75-20.156-109.5-51.532-27 31.376-66 51.532-109.75 51.532-80.75 0-146.25-66.844-146.25-149.25 0-186.75 256-298.75 256-298.75s28 12.406 65.282 35.376c-0.47 4.218-1.282 8.312-1.282 12.624 0 61.75 50.25 112 112 112zM512 960c-282.782 0-512-229.218-512-512s229.218-512 512-512 512 229.218 512 512-229.218 512-512 512zM512 16c-238.594 0-432 193.406-432 432s193.406 432 432 432 432-193.406 432-432-193.406-432-432-432zM688 352c-44.188 0-80-35.812-80-80s35.812-80 80-80 80 35.812 80 80-35.812 80-80 80zM688 211.188l-38.406 44.812h22.406v64h32v-64h22.406l-38.406-44.812z" />
<glyph unicode="&#xe992;" glyph-name="like-remove" d="M688 384c9.562 0 18.656-1.562 27.532-3.844 30.592 40.72 52.468 88.406 52.468 142.594 0 82.406-65.5 149.25-146.5 149.25-43.75 0-82.75-20.156-109.5-51.532-27 31.376-66 51.532-109.75 51.532-80.75 0-146.25-66.844-146.25-149.25 0-186.75 256-298.75 256-298.75s28 12.406 65.282 35.376c-0.47 4.218-1.282 8.312-1.282 12.624 0 61.75 50.25 112 112 112zM512 960c-282.782 0-512-229.218-512-512s229.218-512 512-512 512 229.218 512 512-229.218 512-512 512zM512 16c-238.594 0-432 193.406-432 432s193.406 432 432 432 432-193.406 432-432-193.406-432-432-432zM688 352c-44.188 0-80-35.812-80-80s35.812-80 80-80 80 35.812 80 80-35.812 80-80 80zM736 256h-96v32h96v-32z" />
<glyph unicode="&#xe993;" glyph-name="like-upload" d="M688 384c9.562 0 18.656-1.562 27.532-3.844 30.592 40.72 52.468 88.406 52.468 142.594 0 82.406-65.5 149.25-146.5 149.25-43.75 0-82.75-20.156-109.5-51.532-27 31.376-66 51.532-109.75 51.532-80.75 0-146.25-66.844-146.25-149.25 0-186.75 256-298.75 256-298.75s28 12.406 65.282 35.376c-0.47 4.218-1.282 8.312-1.282 12.624 0 61.75 50.25 112 112 112zM512 960c-282.782 0-512-229.218-512-512s229.218-512 512-512 512 229.218 512 512-229.218 512-512 512zM512 16c-238.594 0-432 193.406-432 432s193.406 432 432 432 432-193.406 432-432-193.406-432-432-432zM688 192c44.188 0 80 35.812 80 80s-35.812 80-80 80-80-35.812-80-80 35.812-80 80-80zM688 332.812l38.406-44.812h-22.406v-64h-32v64h-22.406l38.406 44.812z" />
<glyph unicode="&#xe994;" glyph-name="limit-directions" d="M512 960c-282.782 0-512-229.218-512-512s229.218-512 512-512 512 229.218 512 512-229.218 512-512 512zM512 16c-238.594 0-432 193.406-432 432s193.406 432 432 432 432-193.406 432-432-193.406-432-432-432zM704 544v96h-96l24-24-120-120-120 120 24 24h-96v-96l24 24 120-120-120-120-24 24v-96h96l-24 24 120 120 120-120-24-24h96v96l-24-24-120 120 120 120zM736 704h-96v-32h96v-96h32v128zM768 224v96h-32v-96h-96v-32h128zM288 192h96v32h-96v96h-32v-128zM256 671.968v-95.968h32v96h96v32h-128z" />
<glyph unicode="&#xe995;" glyph-name="line-through" d="M512 960c-282.782 0-512-229.218-512-512s229.218-512 512-512 512 229.218 512 512-229.218 512-512 512zM512 16c-238.594 0-432 193.406-432 432s193.406 432 432 432 432-193.406 432-432-193.406-432-432-432zM736 480h-188.812c-1.376 0.75-2.438 1.376-3.812 2.124-48.376 26.312-78.906 47.438-91.75 63.188-8.876 10.75-13.344 22.624-13.344 35.688 0 17.062 7.062 32.312 21.094 45.688 14.062 13.376 32 20 53.5 20 19.032 0 37.5-4.906 55.218-14.782 17.938-9.968 31.688-29.25 41.218-46.094 9.562-16.876 16.376-41.812 20.188-73.812h10.5v160h-10.5c-2.124-9.876-5.032-16.438-8.468-19.718-3.406-3.282-7.718-4.968-13.032-4.968-4.75 0-12.938 2.624-24.532 7.906-25.218 11.156-48.906 16.782-71.312 16.782-35.782 0-65.282-11.124-88.532-33.312-23.188-22.25-34.812-48.718-34.812-79.5 0-17.624 4-33.938 11.812-48.624 5.906-10.938 14.438-21 24.344-30.562h-136.968v-64h232.876c30.594-17.562 50.124-29.594 57.532-35.312 12.032-9.25 20.938-19.282 26.594-30.032 5.624-10.718 8.594-21.406 8.594-31.906 0-18.876-7.624-35.312-22.688-49.25s-35.344-20.844-61.25-20.844c-22.376 0-42.968 5.062-61.782 15.156-18.688 10.094-32.624 29.312-41.688 44.594-9.188 15.278-16.438 43.59-21.782 75.59h-20.406v-160h20.406c1.406 9.906 3.718 16.468 6.594 19.624 3.032 3.124 7.188 4.718 12.376 4.718 5.376 0 18.124-3.344 38.312-9.968 20.218-6.624 33.562-10.468 40-11.562 10.812-1.876 22.344-2.812 34.5-2.812 38.812 0 70.656 11.75 95.532 35.188 24.624 23.5 37.094 51.468 37.094 83.876 0 17.062-3.906 33.406-11.656 49-4.312 8.688-9.906 16.562-16.282 23.938h95.124v63.998z" />
<glyph unicode="&#xe996;" glyph-name="link-url" d="M512 960c-282.782 0-512-229.218-512-512s229.218-512 512-512 512 229.218 512 512-229.218 512-512 512zM512 16c-238.594 0-432 193.406-432 432s193.406 432 432 432 432-193.406 432-432-193.406-432-432-432zM719 477.558c-21.688 21.656-47.938 35.438-75.532 42.75-29.25 7.718-59.844 7.344-88.906-1.062-26.344-7.532-51.376-20.938-72.124-41.688-27.376-27.344-68.844-31.406-100.844-13-6.218 3.624-12.156 7.718-17.468 13-32.624 32.688-32.624 85.656 0 118.25 32.718 32.688 85.624 32.688 118.312 0 5.312-5.25 9.376-11.188 13-17.344 29.062 8.344 59.624 8.75 88.938 1-7.376 27.594-21.188 53.844-42.812 75.594-65.312 65.25-171.218 65.25-236.562 0-65.312-65.406-65.312-171.312 0-236.624 21.688-21.594 47.938-35.438 75.5-42.812 29.282-7.624 59.812-7.218 88.938 1.032 26.376 7.656 51.376 20.968 72.124 41.782 27.406 27.344 68.906 31.5 100.906 12.968 6.094-3.594 12.094-7.688 17.438-12.968 32.594-32.624 32.594-85.594 0-118.312-32.688-32.624-85.718-32.624-118.344 0-5.312 5.312-9.376 11.282-13 17.406-29.062-8.312-59.624-8.656-88.876-1 7.312-27.594 21.062-53.844 42.75-75.562 65.312-65.282 171.188-65.282 236.562 0 65.312 65.404 65.312 171.278 0 236.59z" />
<glyph unicode="&#xe997;" glyph-name="list-circle" d="M512 960c-282.782 0-512-229.218-512-512s229.218-512 512-512 512 229.218 512 512-229.218 512-512 512zM512 16c-238.594 0-432 193.406-432 432s193.406 432 432 432 432-193.406 432-432-193.406-432-432-432zM320 352c-17.688 0-32-14.312-32-32s14.312-32 32-32 32 14.312 32 32-14.312 32-32 32zM320 480c-17.688 0-32-14.312-32-32s14.312-32 32-32 32 14.312 32 32-14.312 32-32 32zM320 608c-17.688 0-32-14.312-32-32s14.312-32 32-32 32 14.312 32 32-14.312 32-32 32zM736 592c0 8.844-7.156 16-16 16h-288c-8.844 0-16-7.156-16-16v-32c0-8.844 7.156-16 16-16h288c8.844 0 16 7.156 16 16v32zM736 464c0 8.844-7.156 16-16 16h-288c-8.844 0-16-7.156-16-16v-32c0-8.844 7.156-16 16-16h288c8.844 0 16 7.156 16 16v32zM736 336c0 8.844-7.156 16-16 16h-288c-8.844 0-16-7.156-16-16v-32c0-8.844 7.156-16 16-16h288c8.844 0 16 7.156 16 16v32z" />
<glyph unicode="&#xe998;" glyph-name="list-square" d="M512 960c-282.782 0-512-229.218-512-512s229.218-512 512-512 512 229.218 512 512-229.218 512-512 512zM512 16c-238.594 0-432 193.406-432 432s193.406 432 432 432 432-193.406 432-432-193.406-432-432-432zM416 608h320v-64h-320v64zM416 480h320v-64h-320v64zM288 608h64v-64h-64v64zM288 480h64v-64h-64v64zM288 352h64v-64h-64v64zM416 352h320v-64h-320v64z" />
<glyph unicode="&#xe999;" glyph-name="location-maps" d="M512 960c-282.782 0-512-229.218-512-512s229.218-512 512-512 512 229.218 512 512-229.218 512-512 512zM512 16c-238.594 0-432 193.406-432 432s193.406 432 432 432 432-193.406 432-432-193.406-432-432-432zM256 471.25l209.438-69.782 69.812-209.468 232.75 512-512-232.75zM494.532 430.562l-157.094 52.344 384 174.532-226.906-226.876z" />
<glyph unicode="&#xe99a;" glyph-name="location" d="M512 960c-282.782 0-512-229.218-512-512s229.218-512 512-512 512 229.218 512 512-229.218 512-512 512zM512 16c-238.594 0-432 193.406-432 432s193.406 432 432 432 432-193.406 432-432-193.406-432-432-432zM256 384l512 320-320-512v192h-192z" />
<glyph unicode="&#xe99b;" glyph-name="locked" d="M512 960c-282.782 0-512-229.218-512-512s229.218-512 512-512 512 229.218 512 512-229.218 512-512 512zM512 16c-238.594 0-432 193.406-432 432s193.406 432 432 432 432-193.406 432-432-193.406-432-432-432zM671.376 480h-31.376l0.094 92.438c0 55-57.124 99.562-127.75 99.562-70.532 0-127.75-44.562-127.75-99.562l-0.594-92.438h-32.062c-17.656 0-31.25-14.25-31.25-28l-0.688-200c0-13.75 14.968-28 32.624-28h319.5c17.594 0 31.188 14.25 31.188 28l0.688 200c0 13.75-15.032 28-32.624 28zM448 576c0 27.438 29.188 46.234 64.344 46.234 35.188 0 63.656-18.796 63.656-46.234l-0.438-96h-127.562v96z" />
<glyph unicode="&#xe99c;" glyph-name="login-lock-refresh" d="M512 960c-282.782 0-512-229.218-512-512s229.218-512 512-512 512 229.218 512 512-229.218 512-512 512zM512 16c-238.594 0-432 193.406-432 432s193.406 432 432 432 432-193.406 432-432-193.406-432-432-432zM592 480h-17c0.624 5.032 1 10.376 1 16 0 26.406-28.812 48-64 48s-64-21.594-64-48c0-5.624 0.376-10.968 1-16h-17c-8.844 0-16-7.156-16-16v-96c0-8.844 7.156-16 16-16h160c8.844 0 16 7.156 16 16v96c0 8.844-7.156 16-16 16zM480 480c-9.594 19.188 14.406 38.406 32 38.406s41.594-19.218 32-38.406h-64zM741.812 337.624l61.376 110.376h-38.376c-1.594 144.688-113.25 255.032-253.562 255.218-141.218 0.156-255.532-114.156-255.344-255.376 0.156-141.25 114.718-255.812 255.938-255.938 79.75-0.188 150.812 36.25 197.594 93.25l-30.562 50.968c-35.876-54.032-97.282-89.5-167.124-89.406-110.938 0.062-200.968 90.094-201.062 201.062-0.124 110.968 89.688 200.75 200.624 200.624 110.438-0.188 198.156-91.562 199.094-200.406l-38.094 0.062 69.498-110.434z" />
</font>
</defs>
</svg>
