<?xml version="1.0" standalone="no"?>
<!DOCTYPE svg PUBLIC "-//W3C//DTD SVG 1.1//EN" "http://www.w3.org/Graphics/SVG/1.1/DTD/svg11.dtd" >
<svg xmlns="http://www.w3.org/2000/svg">
<metadata>Generated by IcoMoon</metadata>
<defs>
<font id="batch" horiz-adv-x="1024">
<font-face units-per-em="1024" ascent="819" descent="-205" />
<missing-glyph horiz-adv-x="1024" />
<glyph unicode="&#x20;" horiz-adv-x="300" d="" />
<glyph unicode="&#xe900;" glyph-name="add" d="M512-192c-282.752 0-512 229.248-512 512s229.248 512 512 512 512-229.248 512-512-229.248-512-512-512zM512 704c-212.032 0-384-171.968-384-384s171.968-384 384-384 384 171.968 384 384-171.968 384-384 384zM704 256h-128v-128c0-35.392-28.608-64-64-64-35.328 0-64 28.608-64 64v128h-128c-35.328 0-64 28.608-64 64 0 35.328 28.672 64 64 64h128v128c0 35.328 28.672 64 64 64 35.392 0 64-28.672 64-64v-128h128c35.392 0 64-28.672 64-64 0-35.392-28.608-64-64-64z" />
<glyph unicode="&#xe901;" glyph-name="address-book-2" d="M896-192h-640c-35.328 0-64 28.608-64 64v64c35.328 0 64 28.608 64 64v64c0 35.328-28.672 64-64 64v384c35.328 0 64 28.672 64 64v64c0 35.328-28.672 64-64 64v64c0 35.328 28.672 64 64 64h640c35.392 0 64-28.672 64-64v-896c0-35.392-28.608-64-64-64zM832 320c0 141.376-114.624 256-256 256s-256-114.624-256-256 114.624-256 256-256h32c17.664 0 32 14.336 32 32s-14.336 32-32 32h-32c-105.984 0-192 85.952-192 192s86.016 192 192 192c106.048 0 192-85.952 192-192v-96c0-17.664-14.336-32-32-32s-32 14.336-32 32v96c0 70.656-57.344 128-128 128s-128-57.344-128-128 57.344-128 128-128c24 0 46.208 6.976 65.344 18.496 6.656-46.528 46.272-82.496 94.656-82.496 52.992 0 96 43.008 96 96v96zM576 256c-35.392 0-64 28.608-64 64s28.608 64 64 64 64-28.608 64-64-28.608-64-64-64zM160 576h-64c-17.664 0-32 14.336-32 32s14.336 32 32 32h64c17.664 0 32-14.336 32-32s-14.336-32-32-32zM64 768c0 35.328 28.672 64 64 64v-128h-64v64zM128 128h-64v384h64v-384zM96 64h64c17.664 0 32-14.336 32-32s-14.336-32-32-32h-64c-17.664 0-32 14.336-32 32s14.336 32 32 32zM128-192c-35.328 0-64 28.608-64 64v64h64v-128z" />
<glyph unicode="&#xe902;" glyph-name="address-book" d="M896-192h-640c-35.392 0-64 28.608-64 64v64c35.392 0 64 28.608 64 64v64c0 35.328-28.608 64-64 64v384c35.392 0 64 28.608 64 64v64c0 35.328-28.608 64-64 64v64c0 35.328 28.608 64 64 64h640c35.392 0 64-28.672 64-64v-896c0-35.392-28.608-64-64-64zM768 160c-9.856 58.688-49.344 108.032-99.584 135.808 21.952 22.912 35.584 53.952 35.584 88.192v64c0 70.656-57.344 128-128 128s-128-57.344-128-128v-64c0-34.24 13.632-65.28 35.584-88.192-50.24-27.776-89.728-77.12-99.584-135.808v0c0-52.992 43.008-96 96-96h192c52.992 0 96 43.008 96 96v0zM160 576h-64c-17.664 0-32 14.336-32 32s14.336 32 32 32h64c17.664 0 32-14.336 32-32s-14.336-32-32-32zM64 768c0 35.328 28.608 64 64 64v-128h-64v64zM128 128h-64v384h64v-384zM96 64h64c17.664 0 32-14.336 32-32s-14.336-32-32-32h-64c-17.664 0-32 14.336-32 32s14.336 32 32 32zM128-192c-35.392 0-64 28.608-64 64v64h64v-128z" />
<glyph unicode="&#xe903;" glyph-name="alarm-clock" d="M992.576 495.296c-51.712 141.504-163.712 253.568-305.344 305.28 33.28 19.456 71.424 31.424 112.768 31.424 123.776 0 224-100.288 224-224 0-41.344-12.032-79.488-31.424-112.704zM960 320c0-121.856-49.024-232.128-128-312.896v-135.104c0-35.392-28.608-64-64-64s-64 28.608-64 64v44.736c-58.368-27.84-123.008-44.736-192-44.736-69.056 0-133.632 16.896-192 44.736v-44.736c0-35.392-28.672-64-64-64s-64 28.608-64 64v135.104c-78.976 80.768-128 191.040-128 312.896 0 247.424 200.576 448 448 448s448-200.576 448-448zM512 640c-176.704 0-320-143.232-320-320s143.296-320 320-320c176.768 0 320 143.232 320 320s-143.232 320-320 320zM640 256h-128c-35.328 0-64 28.608-64 64v128c0 35.392 28.672 64 64 64 35.392 0 64-28.608 64-64v-64h64c35.392 0 64-28.608 64-64s-28.608-64-64-64zM31.424 495.296c-19.456 33.216-31.424 71.36-31.424 112.704 0 123.712 100.288 224 224 224 41.344 0 79.488-11.968 112.704-31.424-141.568-51.712-253.568-163.776-305.28-305.28z" />
<glyph unicode="&#xe904;" glyph-name="align-horizontal-centers" d="M832 832h-640c-106.048 0-192-85.952-192-192v-640c0-106.048 85.952-192 192-192h640c105.984 0 192 85.952 192 192v640c0 106.048-86.016 192-192 192zM896 0c0-35.392-28.608-64-64-64h-640c-35.328 0-64 28.608-64 64v640c0 35.392 28.672 64 64 64h640c35.392 0 64-28.608 64-64v-640zM448 384h128c35.392 0 64 28.608 64 64v64c0 35.392-28.608 64-64 64h-128c-35.328 0-64-28.608-64-64v-64c0-35.392 28.672-64 64-64zM448 512h128v-64h-128v64zM704 256h-384c-35.328 0-64-28.608-64-64v-64c0-35.392 28.672-64 64-64h384c35.392 0 64 28.608 64 64v64c0 35.392-28.608 64-64 64zM704 128h-384v64h384v-64z" />
<glyph unicode="&#xe905;" glyph-name="align-bottom" d="M384 576h-64c-35.328 0-64-28.608-64-64v-384c0-35.392 28.672-64 64-64h64c35.328 0 64 28.608 64 64v384c0 35.392-28.672 64-64 64zM384 128h-64v384h64v-384zM704 320h-64c-35.392 0-64-28.608-64-64v-128c0-35.392 28.608-64 64-64h64c35.392 0 64 28.608 64 64v128c0 35.392-28.608 64-64 64zM704 128h-64v128h64v-128zM832 832h-640c-106.048 0-192-85.952-192-192v-640c0-106.048 85.952-192 192-192h640c105.984 0 192 85.952 192 192v640c0 106.048-86.016 192-192 192zM896 0c0-35.392-28.608-64-64-64h-640c-35.328 0-64 28.608-64 64v640c0 35.392 28.672 64 64 64h640c35.392 0 64-28.608 64-64v-640z" />
<glyph unicode="&#xe906;" glyph-name="align-left-edges" d="M320 384h128c35.328 0 64 28.608 64 64v64c0 35.392-28.672 64-64 64h-128c-35.328 0-64-28.608-64-64v-64c0-35.392 28.672-64 64-64zM320 512h128v-64h-128v64zM832 832h-640c-106.048 0-192-85.952-192-192v-640c0-106.048 85.952-192 192-192h640c105.984 0 192 85.952 192 192v640c0 106.048-86.016 192-192 192zM896 0c0-35.392-28.608-64-64-64h-640c-35.328 0-64 28.608-64 64v640c0 35.392 28.672 64 64 64h640c35.392 0 64-28.608 64-64v-640zM704 256h-384c-35.328 0-64-28.608-64-64v-64c0-35.392 28.672-64 64-64h384c35.392 0 64 28.608 64 64v64c0 35.392-28.608 64-64 64zM704 128h-384v64h384v-64z" />
<glyph unicode="&#xe907;" glyph-name="align-right-edges" d="M704 256h-384c-35.328 0-64-28.608-64-64v-64c0-35.392 28.672-64 64-64h384c35.392 0 64 28.608 64 64v64c0 35.392-28.608 64-64 64zM704 128h-384v64h384v-64zM832 832h-640c-106.048 0-192-85.952-192-192v-640c0-106.048 85.952-192 192-192h640c105.984 0 192 85.952 192 192v640c0 106.048-86.016 192-192 192zM896 0c0-35.392-28.608-64-64-64h-640c-35.328 0-64 28.608-64 64v640c0 35.392 28.672 64 64 64h640c35.392 0 64-28.608 64-64v-640zM704 576h-128c-35.328 0-64-28.608-64-64v-64c0-35.392 28.672-64 64-64h128c35.392 0 64 28.608 64 64v64c0 35.392-28.608 64-64 64zM704 448h-128v64h128v-64z" />
<glyph unicode="&#xe908;" glyph-name="align-top" d="M384 576h-64c-35.328 0-64-28.608-64-64v-384c0-35.392 28.672-64 64-64h64c35.328 0 64 28.608 64 64v384c0 35.392-28.672 64-64 64zM384 128h-64v384h64v-384zM832 832h-640c-106.048 0-192-85.952-192-192v-640c0-106.048 85.952-192 192-192h640c105.984 0 192 85.952 192 192v640c0 106.048-86.016 192-192 192zM896 0c0-35.392-28.608-64-64-64h-640c-35.328 0-64 28.608-64 64v640c0 35.392 28.672 64 64 64h640c35.392 0 64-28.608 64-64v-640zM704 576h-64c-35.392 0-64-28.608-64-64v-128c0-35.392 28.608-64 64-64h64c35.392 0 64 28.608 64 64v128c0 35.392-28.608 64-64 64zM704 384h-64v128h64v-128z" />
<glyph unicode="&#xe909;" glyph-name="align-vertical-centers" d="M384 576h-64c-35.328 0-64-28.608-64-64v-384c0-35.392 28.672-64 64-64h64c35.328 0 64 28.608 64 64v384c0 35.392-28.672 64-64 64zM384 128h-64v384h64v-384zM832 832h-640c-106.048 0-192-85.952-192-192v-640c0-106.048 85.952-192 192-192h640c105.984 0 192 85.952 192 192v640c0 106.048-86.016 192-192 192zM896 0c0-35.392-28.608-64-64-64h-640c-35.328 0-64 28.608-64 64v640c0 35.392 28.672 64 64 64h640c35.392 0 64-28.608 64-64v-640zM704 448h-64c-35.392 0-64-28.672-64-64v-128c0-35.392 28.608-64 64-64h64c35.392 0 64 28.608 64 64v128c0 35.328-28.608 64-64 64zM704 256h-64v128h64v-128z" />
<glyph unicode="&#xe90a;" glyph-name="anchor" d="M512-192c-282.752 0-512 229.248-512 512v0 128l256-256h-105.408c45.952-129.152 158.912-226.176 297.408-249.536v313.536h-64c-35.328 0-64 28.608-64 64s28.672 64 64 64h64v75.776c-74.432 26.432-128 96.704-128 180.224 0 97.216 72.512 176.704 166.208 189.376 8.32 1.728 16.96 2.624 25.792 2.624s17.472-0.896 25.792-2.624c93.696-12.672 166.208-92.16 166.208-189.376 0-83.52-53.632-153.792-128-180.224v-75.776h64c35.392 0 64-28.608 64-64s-28.608-64-64-64h-64v-313.536c138.496 23.36 251.52 120.448 297.408 249.536h-105.408l256 256v-128c0-282.752-229.248-512-512-512zM512 704c-35.328 0-64-28.608-64-64s28.672-64 64-64 64 28.608 64 64-28.672 64-64 64z" />
<glyph unicode="&#xe90b;" glyph-name="arrow-down" d="M1024 320c0 282.752-229.248 512-512 512s-512-229.248-512-512 229.248-512 512-512 512 229.248 512 512zM896 320c0-212.032-171.968-384-384-384s-384 171.968-384 384 171.968 384 384 384 384-171.968 384-384zM557.248 82.688c-12.48-12.48-28.864-18.752-45.248-18.752s-32.768 6.272-45.248 18.752l-128 128c-18.304 18.304-23.744 45.888-13.888 69.824 9.856 23.872 33.28 39.488 59.136 39.488h64v192c0 35.392 28.608 64 64 64s64-28.608 64-64v-192h64c25.856 0 49.28-15.616 59.136-39.488 9.856-24 4.352-51.52-13.888-69.824l-128-128z" />
<glyph unicode="&#xe90c;" glyph-name="arrow-left" d="M0 320c0-282.752 229.248-512 512-512s512 229.248 512 512-229.248 512-512 512-512-229.248-512-512zM896 320c0-212.032-171.968-384-384-384s-384 171.968-384 384 171.968 384 384 384 384-171.968 384-384zM274.688 365.248l128 128c18.304 18.24 45.824 23.744 69.824 13.888 23.872-9.856 39.488-33.28 39.488-59.136v-64h192c35.392 0 64-28.608 64-64s-28.608-64-64-64h-192v-64c0-25.856-15.616-49.28-39.488-59.136-23.936-9.856-51.52-4.416-69.824 13.888l-128 128c-12.48 12.48-18.752 28.864-18.752 45.248s6.272 32.768 18.752 45.248z" />
<glyph unicode="&#xe90d;" glyph-name="arrow-right" d="M512 832c-282.752 0-512-229.248-512-512s229.248-512 512-512 512 229.248 512 512-229.248 512-512 512zM512 704c212.032 0 384-171.968 384-384s-171.968-384-384-384-384 171.968-384 384 171.968 384 384 384zM749.312 365.248c12.48-12.48 18.752-28.864 18.752-45.248s-6.272-32.768-18.752-45.248l-128-128c-18.304-18.304-45.888-23.744-69.824-13.888-23.872 9.856-39.488 33.28-39.488 59.136v64h-192c-35.392 0-64 28.608-64 64s28.608 64 64 64h192v64c0 25.856 15.616 49.28 39.488 59.136 24 9.856 51.52 4.352 69.824-13.888l128-128z" />
<glyph unicode="&#xe90e;" glyph-name="arrow-up" d="M512 832c-282.752 0-512-229.248-512-512s229.248-512 512-512 512 229.248 512 512-229.248 512-512 512zM512-64c-212.032 0-384 171.968-384 384s171.968 384 384 384 384-171.968 384-384-171.968-384-384-384zM557.248 557.312l128-128c18.24-18.304 23.744-45.824 13.888-69.824-9.856-23.872-33.28-39.488-59.136-39.488h-64v-192c0-35.392-28.608-64-64-64s-64 28.608-64 64v192h-64c-25.856 0-49.28 15.616-59.136 39.488-9.856 23.936-4.416 51.52 13.888 69.824l128 128c12.48 12.48 28.864 18.752 45.248 18.752s32.768-6.272 45.248-18.752z" />
<glyph unicode="&#xe90f;" glyph-name="asterisk" d="M908.544 401.152c-32.64-18.816-133.12-57.92-225.152-81.152 92.032-23.232 192.512-62.336 225.216-81.152 61.12-35.328 82.112-113.6 46.784-174.848s-113.6-82.176-174.784-46.848c-32.704 18.88-116.8 86.464-182.912 154.56 25.92-91.392 42.304-198.016 42.304-235.712 0-70.656-57.344-128-128-128s-128 57.344-128 128c0 37.696 16.384 144.32 42.368 235.712-66.112-68.096-150.208-135.68-182.912-154.56-61.248-35.328-139.52-14.4-174.848 46.848s-14.4 139.52 46.848 174.848c32.64 18.816 133.12 57.92 225.216 81.152-92.096 23.232-192.576 62.336-225.216 81.152-61.248 35.328-82.176 113.6-46.848 174.848s113.6 82.176 174.848 46.848c32.704-18.88 116.8-86.464 182.912-154.56-25.984 91.392-42.368 198.016-42.368 235.712 0 70.656 57.344 128 128 128s128-57.344 128-128c0-37.696-16.384-144.32-42.368-235.712 66.112 68.096 150.272 135.68 182.912 154.56 61.184 35.328 139.52 14.4 174.784-46.848 35.392-61.248 14.4-139.52-46.784-174.848z" />
<glyph unicode="&#xe910;" glyph-name="attachment-2" d="M768 768c0 35.392 28.608 64 64 64s64-28.608 64-64v-608c0-194.432-157.632-352-352-352s-352 157.568-352 352v416c0 141.376 114.624 256 256 256s256-114.624 256-256v-416c0-88.384-71.616-160-160-160s-160 71.616-160 160v416c0 35.328 28.608 64 64 64s64-28.672 64-64v-416c0-17.664 14.336-32 32-32s32 14.336 32 32v416c0 70.656-57.344 128-128 128s-128-57.344-128-128v-416c0-123.712 100.288-224 224-224s224 100.288 224 224v608z" />
<glyph unicode="&#xe911;" glyph-name="attachment" d="M832 768c0 35.392 28.608 64 64 64s64-28.608 64-64v-512c0-247.424-200.576-448-448-448s-448 200.576-448 448v256c0 176.768 143.232 320 320 320s320-143.232 320-320v-192c0-106.048-85.952-192-192-192s-192 85.952-192 192v192c0 35.392 28.608 64 64 64s64-28.608 64-64v-192c0-35.392 28.608-64 64-64s64 28.608 64 64v192c0 106.048-85.952 192-192 192s-192-85.952-192-192v-256c0-176.768 143.232-320 320-320s320 143.232 320 320v512z" />
<glyph unicode="&#xe912;" glyph-name="audio-high" d="M640-175.232v134.72c148.8 52.864 256 193.472 256 360.512 0 166.912-107.2 307.584-256 360.448v134.784c220.672-56.96 384-256.768 384-495.232 0-238.528-163.328-438.336-384-495.232zM192 64c-106.048 0-192 86.016-192 192v128c0 106.048 85.952 192 192 192h64l320 256v-1024l-320 256h-64zM448 64v512l-128-128h-128c-35.392 0-64-28.672-64-64v-128c0-35.392 28.608-64 64-64h128l128-128zM832 320c0-119.104-81.728-218.368-192-246.912v136.64c38.144 22.208 64 63.040 64 110.272s-25.856 88.064-64 110.272v136.64c110.272-28.48 192-127.744 192-246.912z" />
<glyph unicode="&#xe913;" glyph-name="audio-low" d="M192 64c-106.048 0-192 86.016-192 192v128c0 106.048 85.952 192 192 192h64l320 256v-1024l-320 256h-64zM448 64v512l-128-128h-128c-35.392 0-64-28.672-64-64v-128c0-35.392 28.608-64 64-64h128l128-128z" />
<glyph unicode="&#xe914;" glyph-name="audio-mid" d="M192 64c-106.048 0-192 86.016-192 192v128c0 106.048 85.952 192 192 192h64l320 256v-1024l-320 256h-64zM448 64v512l-128-128h-128c-35.392 0-64-28.672-64-64v-128c0-35.392 28.608-64 64-64h128l128-128zM832 320c0-119.104-81.728-218.368-192-246.912v136.64c38.144 22.208 64 63.040 64 110.272s-25.856 88.064-64 110.272v136.64c110.272-28.48 192-127.744 192-246.912z" />
<glyph unicode="&#xe915;" glyph-name="audio-mute" d="M1012.992 229.504l-90.496-90.496-90.496 90.496-90.496-90.496-90.496 90.496 90.496 90.496-90.496 90.496 90.496 90.56 90.496-90.56 90.496 90.56 90.496-90.56-90.496-90.496 90.496-90.496zM192 64c-106.048 0-192 86.016-192 192v128c0 106.048 85.952 192 192 192h64l320 256v-1024l-320 256h-64zM448 64v512l-128-128h-128c-35.392 0-64-28.672-64-64v-128c0-35.392 28.608-64 64-64h128l128-128z" />
<glyph unicode="&#xe916;" glyph-name="battery-20-2" d="M1024 256v0-64h-64c0-106.048-85.952-192-192-192h-576c-106.048 0-192 85.952-192 192v256c0 106.048 85.952 192 192 192h576c106.048 0 192-85.952 192-192h64v-192zM832 448c0 35.328-28.608 64-64 64h-576c-35.392 0-64-28.672-64-64v-256c0-35.392 28.608-64 64-64h576c35.392 0 64 28.608 64 64v256zM192 448h64v-256h-64v256z" />
<glyph unicode="&#xe917;" glyph-name="battery-20" d="M960 448v128c0 35.328-28.608 64-64 64h-832c-35.328 0-64-28.672-64-64v-576c0-35.392 28.672-64 64-64h832c35.392 0 64 28.608 64 64v128c35.392 0 64 28.608 64 64v192c0 35.328-28.608 64-64 64zM832 128c0-35.392-28.608-64-64-64h-576c-35.328 0-64 28.608-64 64v320c0 35.328 28.672 64 64 64h576c35.392 0 64-28.672 64-64v-320zM224 448c-17.664 0-32-14.336-32-32v-256c0-17.664 14.336-32 32-32s32 14.336 32 32v256c0 17.664-14.336 32-32 32z" />
<glyph unicode="&#xe918;" glyph-name="battery-40-2" d="M1024 256v0-64h-64c0-106.048-85.952-192-192-192h-576c-106.048 0-192 85.952-192 192v256c0 106.048 85.952 192 192 192h576c106.048 0 192-85.952 192-192h64v-192zM832 448c0 35.328-28.608 64-64 64h-576c-35.392 0-64-28.672-64-64v-256c0-35.392 28.608-64 64-64h576c35.392 0 64 28.608 64 64v256zM320 448h64v-256h-64v256zM192 448h64v-256h-64v256z" />
<glyph unicode="&#xe919;" glyph-name="battery-40" d="M960 448v128c0 35.328-28.608 64-64 64h-832c-35.328 0-64-28.672-64-64v-576c0-35.392 28.672-64 64-64h832c35.392 0 64 28.608 64 64v128c35.392 0 64 28.608 64 64v192c0 35.328-28.608 64-64 64zM832 128c0-35.392-28.608-64-64-64h-576c-35.328 0-64 28.608-64 64v320c0 35.328 28.672 64 64 64h576c35.392 0 64-28.672 64-64v-320zM224 448c-17.664 0-32-14.336-32-32v-256c0-17.664 14.336-32 32-32s32 14.336 32 32v256c0 17.664-14.336 32-32 32zM352 448c-17.664 0-32-14.336-32-32v-256c0-17.664 14.336-32 32-32s32 14.336 32 32v256c0 17.664-14.336 32-32 32z" />
<glyph unicode="&#xe91a;" glyph-name="battery-60-2" d="M1024 256v0-64h-64c0-106.048-85.952-192-192-192h-576c-106.048 0-192 85.952-192 192v256c0 106.048 85.952 192 192 192h576c106.048 0 192-85.952 192-192h64v-192zM832 448c0 35.328-28.608 64-64 64h-576c-35.392 0-64-28.672-64-64v-256c0-35.392 28.608-64 64-64h576c35.392 0 64 28.608 64 64v256zM448 448h64v-256h-64v256zM320 448h64v-256h-64v256zM192 448h64v-256h-64v256z" />
<glyph unicode="&#xe91b;" glyph-name="battery-60" d="M960 448v128c0 35.328-28.608 64-64 64h-832c-35.328 0-64-28.672-64-64v-576c0-35.392 28.672-64 64-64h832c35.392 0 64 28.608 64 64v128c35.392 0 64 28.608 64 64v192c0 35.328-28.608 64-64 64zM832 128c0-35.392-28.608-64-64-64h-576c-35.328 0-64 28.608-64 64v320c0 35.328 28.672 64 64 64h576c35.392 0 64-28.672 64-64v-320zM224 448c-17.664 0-32-14.336-32-32v-256c0-17.664 14.336-32 32-32s32 14.336 32 32v256c0 17.664-14.336 32-32 32zM352 448c-17.664 0-32-14.336-32-32v-256c0-17.664 14.336-32 32-32s32 14.336 32 32v256c0 17.664-14.336 32-32 32zM480 448c-17.664 0-32-14.336-32-32v-256c0-17.664 14.336-32 32-32s32 14.336 32 32v256c0 17.664-14.336 32-32 32z" />
<glyph unicode="&#xe91c;" glyph-name="battery-80-2" d="M1024 256v0-64h-64c0-106.048-85.952-192-192-192h-576c-106.048 0-192 85.952-192 192v256c0 106.048 85.952 192 192 192h576c106.048 0 192-85.952 192-192h64v-192zM832 448c0 35.328-28.608 64-64 64h-576c-35.392 0-64-28.672-64-64v-256c0-35.392 28.608-64 64-64h576c35.392 0 64 28.608 64 64v256zM576 448h64v-256h-64v256zM448 448h64v-256h-64v256zM320 448h64v-256h-64v256zM192 448h64v-256h-64v256z" />
<glyph unicode="&#xe91d;" glyph-name="battery-80" d="M960 448v128c0 35.328-28.608 64-64 64h-832c-35.328 0-64-28.672-64-64v-576c0-35.392 28.672-64 64-64h832c35.392 0 64 28.608 64 64v128c35.392 0 64 28.608 64 64v192c0 35.328-28.608 64-64 64zM832 128c0-35.392-28.608-64-64-64h-576c-35.328 0-64 28.608-64 64v320c0 35.328 28.672 64 64 64h576c35.392 0 64-28.672 64-64v-320zM224 448c-17.664 0-32-14.336-32-32v-256c0-17.664 14.336-32 32-32s32 14.336 32 32v256c0 17.664-14.336 32-32 32zM352 448c-17.664 0-32-14.336-32-32v-256c0-17.664 14.336-32 32-32s32 14.336 32 32v256c0 17.664-14.336 32-32 32zM480 448c-17.664 0-32-14.336-32-32v-256c0-17.664 14.336-32 32-32s32 14.336 32 32v256c0 17.664-14.336 32-32 32zM608 448c-17.6 0-32-14.336-32-32v-256c0-17.664 14.4-32 32-32 17.664 0 32 14.336 32 32v256c0 17.664-14.336 32-32 32z" />
<glyph unicode="&#xe91e;" glyph-name="battery-100-2" d="M1024 256v0-64h-64c0-106.048-85.952-192-192-192h-576c-106.048 0-192 85.952-192 192v256c0 106.048 85.952 192 192 192h576c106.048 0 192-85.952 192-192h64v-192zM832 448c0 35.328-28.608 64-64 64h-576c-35.392 0-64-28.672-64-64v-256c0-35.392 28.608-64 64-64h576c35.392 0 64 28.608 64 64v256zM704 448h64v-256h-64v256zM576 448h64v-256h-64v256zM448 448h64v-256h-64v256zM320 448h64v-256h-64v256zM192 448h64v-256h-64v256z" />
<glyph unicode="&#xe91f;" glyph-name="battery-100" d="M960 448v128c0 35.328-28.608 64-64 64h-832c-35.328 0-64-28.672-64-64v-576c0-35.392 28.672-64 64-64h832c35.392 0 64 28.608 64 64v128c35.392 0 64 28.608 64 64v192c0 35.328-28.608 64-64 64zM832 128c0-35.392-28.608-64-64-64h-576c-35.328 0-64 28.608-64 64v320c0 35.328 28.672 64 64 64h576c35.392 0 64-28.672 64-64v-320zM224 448c-17.664 0-32-14.336-32-32v-256c0-17.664 14.336-32 32-32s32 14.336 32 32v256c0 17.664-14.336 32-32 32zM352 448c-17.664 0-32-14.336-32-32v-256c0-17.664 14.336-32 32-32s32 14.336 32 32v256c0 17.664-14.336 32-32 32zM480 448c-17.664 0-32-14.336-32-32v-256c0-17.664 14.336-32 32-32s32 14.336 32 32v256c0 17.664-14.336 32-32 32zM608 448c-17.6 0-32-14.336-32-32v-256c0-17.664 14.4-32 32-32 17.664 0 32 14.336 32 32v256c0 17.664-14.336 32-32 32zM736 448c-17.6 0-32-14.336-32-32v-256c0-17.664 14.4-32 32-32 17.664 0 32 14.336 32 32v256c0 17.664-14.336 32-32 32z" />
<glyph unicode="&#xe920;" glyph-name="battery-charge-2" d="M1024 256v0 192h-64c0 106.048-85.952 192-192 192h-204.48l12.352 60.928-44.736-60.928h-339.136c-106.048 0-192-85.952-192-192v-256c0-106.048 85.952-192 192-192h263.616l-14.080-64.96 47.616 64.96h278.848c106.048 0 192 85.952 192 192v0h64v64zM192 512h245.312l-186.112-253.888h260.48l-28.224-130.112h-291.456c-35.392 0-64 28.608-64 64v256c0 35.328 28.608 64 64 64zM832 448v-256c0-35.392-28.608-64-64-64h-185.088l187.904 256.448h-259.136l25.856 127.552h230.464c35.392 0 64-28.672 64-64z" />
<glyph unicode="&#xe921;" glyph-name="battery-charge" d="M960 128v-128c0-35.392-28.608-64-64-64h-832c-35.328 0-64 28.608-64 64v576c0 35.328 28.672 64 64 64h832c35.392 0 64-28.672 64-64v-128c35.392 0 64-28.672 64-64v-192c0-35.392-28.608-64-64-64zM832 192v256c0 35.328-28.608 64-64 64h-576c-35.328 0-64-28.672-64-64v-320c0-35.392 28.672-64 64-64h576c35.392 0 64 28.608 64 64v64zM704 128h-128v64h-64v64h-64v64h64v64h64v64h128v-64h64v-64h-64v-64h64v-64h-64v-64zM192 320h192v-64h-192v64z" />
<glyph unicode="&#xe922;" glyph-name="battery-empty-2" d="M1024 256v0-64h-64c0-106.048-85.952-192-192-192h-576c-106.048 0-192 85.952-192 192v256c0 106.048 85.952 192 192 192h576c106.048 0 192-85.952 192-192h64v-192zM832 448c0 35.328-28.608 64-64 64h-576c-35.392 0-64-28.672-64-64v-256c0-35.392 28.608-64 64-64h576c35.392 0 64 28.608 64 64v256z" />
<glyph unicode="&#xe923;" glyph-name="battery-empty" d="M960 128v-128c0-35.392-28.608-64-64-64h-832c-35.328 0-64 28.608-64 64v576c0 35.328 28.672 64 64 64h832c35.392 0 64-28.672 64-64v-128c35.392 0 64-28.672 64-64v-192c0-35.392-28.608-64-64-64zM832 448c0 35.328-28.608 64-64 64h-576c-35.328 0-64-28.672-64-64v-320c0-35.392 28.672-64 64-64h576c35.392 0 64 28.608 64 64v320z" />
<glyph unicode="&#xe924;" glyph-name="bell-2" d="M512 0c-212.032 0-384 85.952-384 192 0 39.168 23.744 75.52 64 105.856v86.144c0 132.16 80.192 245.568 194.624 294.4-1.728 8.256-2.624 16.832-2.624 25.6 0 70.656 57.344 128 128 128s128-57.344 128-128c0-8.768-0.896-17.344-2.624-25.6 114.368-48.832 194.624-162.24 194.624-294.4v-86.144c40.256-30.336 64-66.688 64-105.856 0-106.048-171.968-192-384-192zM512-64c44.416 0 86.528 4.224 126.976 10.24 0.256-3.456 1.024-6.72 1.024-10.24 0-70.656-57.344-128-128-128s-128 57.344-128 128c0 3.52 0.768 6.784 1.024 10.24 40.512-6.016 82.56-10.24 126.976-10.24z" />
<glyph unicode="&#xe925;" glyph-name="bell-mute-2" d="M352.32 660.672c11.072 6.464 22.336 12.672 34.304 17.728-1.728 8.256-2.624 16.832-2.624 25.6 0 70.656 57.344 128 128 128s128-57.344 128-128c0-8.768-0.896-17.344-2.624-25.6 114.368-48.832 194.624-162.24 194.624-294.4v-86.144c40.256-30.336 64-66.688 64-105.856 0-19.712-7.616-38.4-18.752-56.256l-524.928 524.928zM892.736-151.296l-852.032 852.032 90.496 90.56 852.032-852.096-90.496-90.496zM192 297.856v86.144c0 23.104 3.264 45.376 7.936 67.072l439.424-439.424c-40.128-7.104-82.496-11.648-127.36-11.648-212.032 0-384 85.952-384 192 0 39.168 23.744 75.52 64 105.856zM512-64c44.416 0 86.528 4.224 126.976 10.24 0.256-3.456 1.024-6.72 1.024-10.24 0-70.656-57.344-128-128-128s-128 57.344-128 128c0 3.52 0.768 6.784 1.024 10.24 40.512-6.016 82.56-10.24 126.976-10.24z" />
<glyph unicode="&#xe926;" glyph-name="bell-mute" d="M855.232-113.792l-777.024 777.088 90.496 90.496 777.088-777.088-90.56-90.496zM832 180.992l-446.784 446.848c-0.384 4.032-1.216 8-1.216 12.16 0 70.656 57.344 128 128 128s128-57.344 128-128c0-8.768-0.896-17.344-2.624-25.6 114.368-48.832 194.624-162.24 194.624-294.4v-139.008zM512 0c-62.528 0-114.368 44.864-125.568 104.064 33.728 14.72 77.312 23.936 125.568 23.936 4.288 0 7.936-1.024 12.16-1.152l82.368-82.368c-23.488-26.56-56.32-44.48-94.528-44.48zM512-64c65.536 0 124.736 12.672 169.984 32.96l58.496-58.432c-64-23.872-142.464-38.528-228.48-38.528-212.032 0-384 85.952-384 192 0 39.168 23.744 75.52 64 105.856v150.144c0 41.216 8.576 80.128 22.72 116.224l246.784-246.784c-117.184-11.712-205.504-63.36-205.504-125.44 0-70.656 114.624-128 256-128z" />
<glyph unicode="&#xe927;" glyph-name="bell" d="M512-128c-212.032 0-384 85.952-384 192 0 39.168 23.744 75.52 64 105.856v150.144c0 132.16 80.192 245.568 194.624 294.4-1.728 8.256-2.624 16.832-2.624 25.6 0 70.656 57.344 128 128 128s128-57.344 128-128c0-8.768-0.896-17.344-2.624-25.6 114.368-48.832 194.624-162.24 194.624-294.4v-150.144c40.256-30.4 64-66.688 64-105.856 0-106.048-171.968-192-384-192zM512 192c-141.376 0-256-57.344-256-128s114.624-128 256-128 256 57.344 256 128-114.624 128-256 128zM512 0c-62.528 0-114.368 44.864-125.568 104.064 33.728 14.72 77.312 23.936 125.568 23.936s91.904-9.216 125.632-23.936c-11.264-59.2-63.104-104.064-125.632-104.064z" />
<glyph unicode="&#xe928;" glyph-name="bin-2" d="M768-64c0-70.656-114.624-128-256-128s-256 57.344-256 128l-128 704c0 106.048 171.968 192 384 192s384-85.952 384-192l-128-704zM512 768c-141.376 0-256-57.344-256-128s114.624-128 256-128 256 57.344 256 128-114.624 128-256 128z" />
<glyph unicode="&#xe929;" glyph-name="bin-3" d="M896 512v-512c0-106.048-86.016-192-192-192h-384c-106.048 0-192 85.952-192 192v512c-35.328 0-64 28.608-64 64s28.672 64 64 64h192c0 106.048 85.952 192 192 192 105.984 0 192-85.952 192-192v0h192c35.392 0 64-28.608 64-64s-28.608-64-64-64zM512 704c-35.328 0-64-28.608-64-64h128c0 35.392-28.608 64-64 64zM256 512v-512c0-35.392 28.672-64 64-64h384c35.392 0 64 28.608 64 64v512h-512zM608 64c-17.6 0-32 14.336-32 32v256c0 17.664 14.4 32 32 32 17.664 0 32-14.336 32-32v-256c0-17.664-14.336-32-32-32zM416 64c-17.664 0-32 14.336-32 32v256c0 17.664 14.336 32 32 32s32-14.336 32-32v-256c0-17.664-14.336-32-32-32z" />
<glyph unicode="&#xe92a;" glyph-name="bin" d="M896 512v-512c0-105.984-86.016-192-192-192h-384c-106.048 0-192 86.016-192 192v512c-35.328 0-64 28.672-64 64s28.672 64 64 64h192c0 106.048 85.952 192 192 192 105.984 0 192-85.952 192-192h192c35.392 0 64-28.672 64-64s-28.608-64-64-64zM512 704c-35.328 0-64-28.672-64-64h128c0 35.328-28.672 64-64 64zM768 512h-512v-512c0-35.392 28.672-64 64-64h384c35.392 0 64 28.608 64 64v512zM640 448h64v-448h-64v448zM448 448h128v-448h-128v448zM320 448h64v-448h-64v448z" />
<glyph unicode="&#xe92b;" glyph-name="book-2" d="M960-64c-97.92-4.288-284.608-21.056-385.92-73.664-4.8-30.592-30.144-54.336-62.080-54.336-31.872 0-57.28 23.744-62.080 54.336-101.312 52.608-288 69.376-385.92 73.664-35.328 0-64 28.608-64 64v768c0 35.328 28.672 64 64 64 2.24 0 4.096-1.088 6.336-1.28 440.128-11.392 441.664-126.72 441.664-126.72s1.536 115.328 441.664 126.72c2.24 0.192 4.096 1.28 6.336 1.28 35.392 0 64-28.672 64-64v-768c0-35.392-28.608-64-64-64zM448 631.424c-82.56 41.984-219.136 59.456-320 66.944v-637.824c171.776-8.768 267.904-34.496 320-60.544v631.424zM896 698.368c-100.8-7.488-237.44-24.96-320-66.88v-631.488c52.096 26.048 148.16 51.776 320 60.48v637.888z" />
<glyph unicode="&#xe92c;" glyph-name="book-lines-2" d="M960-64c-97.92-4.288-284.608-21.056-385.92-73.664-4.8-30.592-30.144-54.336-62.080-54.336s-57.216 23.744-62.080 54.336c-101.248 52.608-288 69.376-385.92 73.664-35.328 0-64 28.608-64 64v768c0 35.328 28.672 64 64 64 2.24 0 4.096-1.088 6.336-1.28 440.128-11.328 441.664-126.72 441.664-126.72s1.536 115.392 441.664 126.72c2.24 0.192 4.096 1.28 6.336 1.28 35.392 0 64-28.672 64-64v-768c0-35.392-28.608-64-64-64zM448 631.424c-82.56 41.984-219.136 59.456-320 66.88v-637.824c171.776-8.704 267.904-34.432 320-60.48v631.424zM896 698.304c-100.864-7.424-237.44-24.896-320-66.88v-631.424c52.096 26.048 148.224 51.776 320 60.48v637.824zM832 576v-128c0 0-192 0-192-64v128c0 0 0 64 192 64zM832 320v-128c0 0-192 0-192-64v128c0 0 0 64 192 64zM384 512v-128c0 64-192 64-192 64v128c192 0 192-64 192-64zM384 256v-128c0 64-192 64-192 64v128c192 0 192-64 192-64z" />
<glyph unicode="&#xe92d;" glyph-name="book-lines" d="M967.744 745.984c-21.504 14.528-46.464 22.016-71.744 22.016-16.064 0-32.192-3.072-47.552-9.216l-320-128c-6.016-2.368-10.944-6.336-16.448-9.6-5.504 3.264-10.432 7.232-16.448 9.6l-320 128c-15.36 6.144-31.488 9.216-47.552 9.216-25.216 0-50.304-7.488-71.744-22.016-35.2-23.808-56.256-63.488-56.256-105.984v-576c0-52.288 31.872-99.456 80.448-118.848l320-128c15.36-6.144 31.488-9.152 47.552-9.152 22.4 0 44.224 6.784 64 18.304 19.776-11.52 41.6-18.304 64-18.304 16.064 0 32.192 3.008 47.552 9.152l320 128c48.576 19.392 80.448 66.56 80.448 118.848v576c0 42.496-21.056 82.176-56.256 105.984zM448-64l-320 128v576l320-128v-576zM896 64l-320-128v576l320 128v-576zM384 473.6l-192 76.8v-64l192-76.8v64zM384 345.6l-192 76.8v-64l192-76.8v64zM384 217.6l-192 76.8v-64l192-76.8v64zM384 89.6l-192 76.8v-64l192-76.8v64zM832 166.4l-192-76.8v-64l192 76.736v64.064zM832 294.4l-192-76.8v-64l192 76.8v64zM832 422.4l-192-76.8v-64l192 76.8v64zM832 550.4l-192-76.8v-64l192 76.8v64z" />
<glyph unicode="&#xe92e;" glyph-name="book" d="M967.744 745.984c-21.504 14.528-46.464 22.016-71.744 22.016-16.064 0-32.192-3.072-47.552-9.216l-320-128c-6.016-2.368-10.944-6.336-16.448-9.6-5.504 3.264-10.432 7.232-16.448 9.6l-320 128c-15.36 6.144-31.488 9.216-47.552 9.216-25.216 0-50.304-7.488-71.744-22.016-35.2-23.808-56.256-63.488-56.256-105.984v-576c0-52.288 31.872-99.456 80.448-118.848l320-128c15.36-6.144 31.488-9.152 47.552-9.152 22.4 0 44.224 6.784 64 18.304 19.776-11.52 41.6-18.304 64-18.304 16.064 0 32.192 3.008 47.552 9.152l320 128c48.576 19.392 80.448 66.56 80.448 118.848v576c0 42.496-21.056 82.176-56.256 105.984zM448-64l-320 128v576l320-128v-576zM896 64l-320-128v576l320 128v-576z" />
<glyph unicode="&#xe92f;" glyph-name="brightness-high" d="M960 256h-64c-35.392 0-64 28.672-64 64s28.608 64 64 64h64c35.392 0 64-28.672 64-64s-28.608-64-64-64zM828.8 546.24c-25.024-24.96-65.536-24.96-90.56 0-25.024 25.024-25.024 65.536 0 90.56l45.312 45.248c24.96 25.024 65.472 25.024 90.496 0s25.024-65.472 0-90.496l-45.248-45.312zM512 64c-141.376 0-256 114.624-256 256s114.624 256 256 256 256-114.624 256-256-114.624-256-256-256zM512 448c-70.656 0-128-57.344-128-128s57.344-128 128-128 128 57.344 128 128-57.344 128-128 128zM512 640c-35.392 0-64 28.672-64 64v64c0 35.328 28.608 64 64 64s64-28.672 64-64v-64c0-35.328-28.608-64-64-64zM195.264 546.24l-45.312 45.312c-25.024 25.024-25.024 65.472 0 90.496s65.536 25.024 90.56 0l45.248-45.248c25.024-25.024 25.024-65.536 0-90.56-25.024-24.96-65.6-24.96-90.496 0zM192 320c0-35.328-28.608-64-64-64h-64c-35.392 0-64 28.672-64 64s28.608 64 64 64h64c35.392 0 64-28.672 64-64zM195.264 93.76c24.96 25.024 65.472 25.024 90.496 0s25.024-65.472 0-90.496l-45.248-45.248c-25.024-25.024-65.536-25.024-90.56 0-25.024 24.96-25.024 65.472 0 90.496l45.312 45.248zM512 0c35.392 0 64-28.608 64-64v-64c0-35.392-28.608-64-64-64s-64 28.608-64 64v64c0 35.392 28.608 64 64 64zM828.8 93.76l45.248-45.248c25.024-25.024 25.024-65.536 0-90.496-25.024-25.024-65.536-25.024-90.496 0l-45.312 45.248c-25.024 25.024-25.024 65.472 0 90.496s65.6 24.96 90.56 0z" />
<glyph unicode="&#xe930;" glyph-name="brightness-low" d="M896 256c-35.392 0-64 28.672-64 64s28.608 64 64 64 64-28.672 64-64-28.608-64-64-64zM738.24 546.24c-25.024 25.024-25.024 65.536 0 90.56s65.536 25.024 90.56 0c24.96-25.024 24.96-65.536 0-90.56-24.96-24.96-65.536-24.96-90.56 0zM512 64c-141.376 0-256 114.624-256 256s114.624 256 256 256 256-114.624 256-256-114.624-256-256-256zM512 448c-70.656 0-128-57.344-128-128s57.344-128 128-128 128 57.344 128 128-57.344 128-128 128zM512 640c-35.392 0-64 28.672-64 64s28.608 64 64 64 64-28.672 64-64-28.608-64-64-64zM195.264 546.24c-25.024 25.024-25.024 65.536 0 90.56 24.96 25.024 65.472 25.024 90.496 0s25.024-65.536 0-90.56c-25.024-24.96-65.6-24.96-90.496 0zM128 256c-35.392 0-64 28.672-64 64s28.608 64 64 64 64-28.672 64-64-28.608-64-64-64zM285.76 93.76c25.024-25.024 25.024-65.472 0-90.496s-65.536-25.024-90.496 0c-25.024 25.024-25.024 65.472 0 90.496 24.896 24.96 65.472 24.96 90.496 0zM512 0c35.392 0 64-28.608 64-64s-28.608-64-64-64-64 28.608-64 64 28.608 64 64 64zM828.8 93.76c24.96-25.024 24.96-65.472 0-90.496-25.024-25.024-65.536-25.024-90.56 0s-25.024 65.472 0 90.496 65.6 24.96 90.56 0z" />
<glyph unicode="&#xe931;" glyph-name="browser-2" d="M832-192h-640c-106.048 0-192 85.952-192 192v640c0 106.048 85.952 192 192 192h640c105.984 0 192-85.952 192-192v-640c0-106.048-86.016-192-192-192zM192 768c-35.328 0-64-28.672-64-64s28.672-64 64-64 64 28.672 64 64-28.672 64-64 64zM896 576h-768v-576c0-35.392 28.672-64 64-64h640c35.392 0 64 28.608 64 64v576z" />
<glyph unicode="&#xe932;" glyph-name="browser-close-2" d="M832-192h-640c-106.048 0-192 85.952-192 192v640c0 106.048 85.952 192 192 192h640c106.048 0 192-85.952 192-192v-640c0-106.048-85.952-192-192-192zM192 768c-35.328 0-64-28.672-64-64s28.672-64 64-64 64 28.672 64 64-28.672 64-64 64zM896 576h-768v-576c0-35.392 28.672-64 64-64h640c35.392 0 64 28.608 64 64v576zM647.744 120.256c-25.024-25.024-65.472-25.024-90.496 0l-45.248 45.248-45.248-45.248c-25.024-25.024-65.536-25.024-90.496 0-25.024 25.024-25.024 65.472 0 90.496l45.248 45.248-45.248 45.248c-25.024 25.024-25.024 65.536 0 90.496 24.96 25.024 65.472 25.024 90.496 0l45.248-45.248 45.248 45.248c25.024 25.024 65.472 25.024 90.496 0 25.024-24.96 25.024-65.472 0-90.496l-45.248-45.248 45.248-45.248c25.024-25.024 25.024-65.472 0-90.496z" />
<glyph unicode="&#xe933;" glyph-name="browser-close" d="M832-192h-640c-106.048 0-192 85.952-192 192v640c0 106.048 85.952 192 192 192h640c106.048 0 192-85.952 192-192v-640c0-106.048-85.952-192-192-192zM896 640c0 35.328-28.608 64-64 64h-640c-35.328 0-64-28.672-64-64v-128h768v128zM896 448h-768v-448c0-35.392 28.672-64 64-64h640c35.392 0 64 28.608 64 64v448zM647.744 56.256c-25.024-25.024-65.472-25.024-90.496 0l-45.248 45.248-45.248-45.248c-25.024-25.024-65.536-25.024-90.496 0-25.024 25.024-25.024 65.472 0 90.496l45.248 45.248-45.248 45.248c-25.024 25.024-25.024 65.536 0 90.496 24.96 25.024 65.472 25.024 90.496 0l45.248-45.248 45.248 45.248c25.024 25.024 65.472 25.024 90.496 0 25.024-24.96 25.024-65.472 0-90.496l-45.248-45.248 45.248-45.248c25.024-25.024 25.024-65.472 0-90.496zM256 576h-64v64h64v-64zM384 576h-64v64h64v-64zM832 576h-384v64h384v-64z" />
<glyph unicode="&#xe934;" glyph-name="browser-download-2" d="M1024 0.128c0-106.048-85.952-192-192-192h-112.384l56.32 56.32c20.608 20.736 35.84 45.312 45.12 71.68h10.944c35.392 0 64 28.608 64 64v575.936h-768v-575.936c0-35.392 28.672-64 64-64h10.88c9.344-26.496 24.576-51.136 45.312-71.872l56.192-56.128h-112.384c-106.048 0-192 85.952-192 192v639.936c0 106.048 85.952 192 192 192h640c106.048 0 192-85.952 192-192v-639.936zM192 768.064c-35.328 0-64-28.672-64-64s28.672-64 64-64 64 28.672 64 64-28.672 64-64 64zM384 64.128h64v191.936c0 35.392 28.672 64 64 64 35.392 0 64-28.608 64-64v-191.936h64c25.856 0 49.28-15.616 59.136-39.552 9.856-24 4.352-51.52-13.888-69.76l-128-128c-12.48-12.48-28.864-18.816-45.248-18.816s-32.768 6.336-45.248 18.816l-128 128c-18.304 18.24-23.744 45.888-13.888 69.76 9.856 23.936 33.28 39.552 59.136 39.552z" />
<glyph unicode="&#xe935;" glyph-name="browser-download" d="M832-192h-112.384l56.32 56.384c20.608 20.736 35.84 45.248 45.12 71.616h10.944c35.392 0 64 28.608 64 64v448h-768v-448c0-35.392 28.672-64 64-64h10.88c9.344-26.496 24.576-51.136 45.312-71.872l56.256-56.128h-112.448c-106.048 0-192 86.016-192 192v640c0 106.048 85.952 192 192 192h640c106.048 0 192-85.952 192-192v-640c0-105.984-85.952-192-192-192zM896 640c0 35.328-28.608 64-64 64h-640c-35.328 0-64-28.672-64-64v-128h768v128zM256 576h-64v64h64v-64zM384 576h-64v64h64v-64zM832 576h-384v64h384v-64zM384 64h64v192c0 35.328 28.672 64 64 64 35.392 0 64-28.608 64-64v-192h64c25.856 0 49.28-15.616 59.136-39.488 9.856-24 4.352-51.52-13.888-69.76l-128-128c-12.48-12.48-28.864-18.88-45.248-18.88s-32.768 6.4-45.248 18.88l-128 128c-18.304 18.24-23.744 45.888-13.888 69.76s33.28 39.488 59.136 39.488z" />
<glyph unicode="&#xe936;" glyph-name="browser-minimize-2" d="M832-192h-640c-106.048 0-192 85.952-192 192v640c0 106.048 85.952 192 192 192h640c106.048 0 192-85.952 192-192v-640c0-106.048-85.952-192-192-192zM192 768c-35.328 0-64-28.672-64-64s28.672-64 64-64 64 28.672 64 64-28.672 64-64 64zM896 576h-768v-576c0-35.392 28.672-64 64-64h640c35.392 0 64 28.608 64 64v576zM640 192h-256c-35.328 0-64 28.608-64 64 0 35.328 28.672 64 64 64h256c35.392 0 64-28.672 64-64 0-35.392-28.608-64-64-64z" />
<glyph unicode="&#xe937;" glyph-name="browser-minimize" d="M832-192h-640c-106.048 0-192 85.952-192 192v640c0 106.048 85.952 192 192 192h640c106.048 0 192-85.952 192-192v-640c0-106.048-85.952-192-192-192zM896 640c0 35.328-28.608 64-64 64h-640c-35.328 0-64-28.672-64-64v-128h768v128zM896 448h-768v-448c0-35.392 28.672-64 64-64h640c35.392 0 64 28.608 64 64v448zM640 128h-256c-35.328 0-64 28.608-64 64s28.672 64 64 64h256c35.392 0 64-28.608 64-64s-28.608-64-64-64zM256 576h-64v64h64v-64zM384 576h-64v64h64v-64zM832 576h-384v64h384v-64z" />
<glyph unicode="&#xe938;" glyph-name="browser-new-window-2" d="M832-192h-640c-106.048 0-192 85.952-192 192v640c0 106.048 85.952 192 192 192h640c106.048 0 192-85.952 192-192v-640c0-106.048-85.952-192-192-192zM192 768c-35.328 0-64-28.672-64-64s28.672-64 64-64 64 28.672 64 64-28.672 64-64 64zM896 576h-768v-576c0-35.392 28.672-64 64-64h640c35.392 0 64 28.608 64 64v576zM640 192h-64v-64c0-35.392-28.608-64-64-64-35.328 0-64 28.608-64 64v64h-64c-35.328 0-64 28.608-64 64 0 35.328 28.672 64 64 64h64v64c0 35.328 28.672 64 64 64 35.392 0 64-28.672 64-64v-64h64c35.392 0 64-28.672 64-64 0-35.392-28.608-64-64-64z" />
<glyph unicode="&#xe939;" glyph-name="browser-new-window" d="M832-192h-640c-106.048 0-192 85.952-192 192v640c0 106.048 85.952 192 192 192h640c106.048 0 192-85.952 192-192v-640c0-106.048-85.952-192-192-192zM896 640c0 35.328-28.608 64-64 64h-640c-35.328 0-64-28.672-64-64v-128h768v128zM896 448h-768v-448c0-35.392 28.672-64 64-64h640c35.392 0 64 28.608 64 64v448zM640 128h-64v-64c0-35.392-28.608-64-64-64-35.328 0-64 28.608-64 64v64h-64c-35.328 0-64 28.608-64 64s28.672 64 64 64h64v64c0 35.328 28.672 64 64 64 35.392 0 64-28.672 64-64v-64h64c35.392 0 64-28.608 64-64s-28.608-64-64-64zM256 576h-64v64h64v-64zM384 576h-64v64h64v-64zM832 576h-384v64h384v-64z" />
<glyph unicode="&#xe93a;" glyph-name="browser-upload-2" d="M832-192h-128v128h128c35.392 0 64 28.608 64 64v576h-768v-576c0-35.392 28.608-64 64-64h128v-128h-128c-106.048 0-192 86.016-192 192v640c0 106.048 85.952 192 192 192h640c106.048 0 192-85.952 192-192v-640c0-105.984-85.952-192-192-192zM192 768c-35.392 0-64-28.672-64-64s28.608-64 64-64 64 28.672 64 64-28.608 64-64 64zM466.752 301.312c12.48 12.48 28.864 18.752 45.248 18.752s32.768-6.272 45.248-18.752l128-128c18.24-18.304 23.744-45.824 13.888-69.824-9.856-23.872-33.28-39.488-59.136-39.488h-64v-192c0-35.392-28.608-64-64-64-35.328 0-64 28.608-64 64v192h-64c-25.856 0-49.28 15.616-59.136 39.488-9.856 23.936-4.416 51.52 13.888 69.824l128 128z" />
<glyph unicode="&#xe93b;" glyph-name="browser-upload" d="M832-192h-128v128h128c35.392 0 64 28.608 64 64v448h-768v-448c0-35.392 28.672-64 64-64h128v-128h-128c-106.048 0-192 86.016-192 192v640c0 106.048 85.952 192 192 192h640c105.984 0 192-85.952 192-192v-640c0-105.984-86.016-192-192-192zM896 640c0 35.328-28.608 64-64 64h-640c-35.328 0-64-28.672-64-64v-128h768v128zM256 576h-64v64h64v-64zM384 576h-64v64h64v-64zM832 576h-384v64h384v-64zM466.752 301.312c12.48 12.48 28.864 18.752 45.248 18.752s32.768-6.272 45.248-18.752l128-128c18.24-18.304 23.744-45.824 13.888-69.824-9.856-23.872-33.28-39.488-59.136-39.488h-64v-192c0-35.392-28.608-64-64-64-35.328 0-64 28.608-64 64v192h-64c-25.856 0-49.28 15.616-59.136 39.488-9.856 23.936-4.416 51.52 13.888 69.824l128 128z" />
<glyph unicode="&#xe93c;" glyph-name="browser-windows-2" d="M896 11.776v500.224c0 106.048-85.952 192-192 192h-500.224c26.432 74.432 96.704 128 180.224 128h448c106.048 0 192-85.952 192-192v-448c0-83.52-53.632-153.792-128-180.224zM832 448v-448c0-106.048-85.952-192-192-192h-448c-106.048 0-192 85.952-192 192v448c0 106.048 85.952 192 192 192h448c106.048 0 192-85.952 192-192zM128 0c0-35.392 28.608-64 64-64h448c35.392 0 64 28.608 64 64v384h-576v-384zM192 576c-35.392 0-64-28.672-64-64s28.608-64 64-64 64 28.672 64 64-28.608 64-64 64z" />
<glyph unicode="&#xe93d;" glyph-name="browser-windows" d="M896 11.776v500.224c0 106.048-86.016 192-192 192h-500.224c26.432 74.432 96.768 128 180.224 128h448c105.984 0 192-85.952 192-192v-448c0-83.52-53.632-153.792-128-180.224zM832 448v-448c0-105.984-86.016-192-192-192h-448c-106.048 0-192 86.016-192 192v448c0 106.048 85.952 192 192 192h448c105.984 0 192-85.952 192-192zM128 0c0-35.392 28.672-64 64-64h448c35.392 0 64 28.608 64 64v256h-576v-256zM128 448v-128h576v128c0 35.328-28.608 64-64 64h-448c-35.328 0-64-28.672-64-64zM640 384h-192v64h192v-64zM320 448h64v-64h-64v64zM192 448h64v-64h-64v64z" />
<glyph unicode="&#xe93e;" glyph-name="browser" d="M832-192h-640c-106.048 0-192 86.016-192 192v640c0 106.048 85.952 192 192 192h640c106.048 0 192-85.952 192-192v-640c0-105.984-85.952-192-192-192zM192-64h640c35.392 0 64 28.608 64 64v448h-768v-448c0-35.392 28.608-64 64-64zM832 704h-640c-35.392 0-64-28.672-64-64v-128h768v128c0 35.328-28.608 64-64 64zM448 640h384v-64h-384v64zM320 640h64v-64h-64v64zM192 640h64v-64h-64v64z" />
<glyph unicode="&#xe93f;" glyph-name="bulb-2" d="M792.128 359.232c-4.032-12.736-10.816-25.92-24.128-39.232-64-64-64-128-64-128v-64c0-35.392-28.608-64-64-64h-256c-35.392 0-64 28.608-64 64v64c0 46.528-33.536 92.608-52.032 114.624-0.576 0.64-1.088 1.344-1.536 1.92-6.272 7.296-10.432 11.456-10.432 11.456v2.24c-39.808 52.992-64 118.272-64 189.76 0 176.768 143.232 320 320 320s320-143.232 320-320c0-55.616-14.72-107.456-39.872-152.768zM512 704c-106.048 0-192-85.952-192-192 0-83.52 53.632-153.792 128-180.224v-75.776c0-35.392 28.608-64 64-64s64 28.608 64 64v75.776c74.368 26.432 128 96.704 128 180.224 0 106.048-85.952 192-192 192zM416 0h192c17.664 0 32-14.336 32-32s-14.336-32-32-32h-192c-17.664 0-32 14.336-32 32s14.336 32 32 32zM480-128h64c17.664 0 32-14.336 32-32s-14.336-32-32-32h-64c-17.664 0-32 14.336-32 32s14.336 32 32 32z" />
<glyph unicode="&#xe940;" glyph-name="bulb" d="M671.104 235.904c-10.112-14.208-20.672-27.776-31.936-39.808 0.064-1.472 0.832-2.688 0.832-4.096v-128c0-35.392-28.608-64-64-64h-128c-35.392 0-64 28.608-64 64v128c0 1.408 0.768 2.624 0.832 4.032-11.264 12.032-21.824 25.6-31.936 39.808-95.68 55.36-160.896 157.632-160.896 276.16 0 176.768 143.232 320 320 320s320-143.232 320-320c0-118.528-65.216-220.8-160.896-276.096zM480-64h64c17.664 0 32-14.336 32-32s-14.336-32-32-32h-64c-17.664 0-32 14.336-32 32s14.336 32 32 32z" />
<glyph unicode="&#xe941;" glyph-name="bullet" d="M512 192c-70.656 0-128 57.344-128 128s57.344 128 128 128 128-57.344 128-128-57.344-128-128-128z" />
<glyph unicode="&#xe942;" glyph-name="bullhorn-2" d="M832 512h-58.112c-3.584-20.096-5.888-41.408-5.888-64s2.304-43.904 5.888-64h58.112c35.392 0 64 28.672 64 64s-28.608 64-64 64zM832 832c-182.016-185.984-448-192-448-192h-192c-106.048 0-192-85.952-192-192s85.952-192 192-192c0-8.896 1.792-17.28 5.056-24.896 6.016-14.4 17.408-25.472 31.36-32.256 0.96-0.448 1.664-1.344 2.688-1.856 7.616-3.264 16.064-4.992 24.896-4.992l-64-320c0-35.392 28.672-64 64-64h128c35.328 0 64 28.608 64 64s-28.672 64-64 64l51.2 256h12.8c28.864 0 52.352 19.52 60.288 45.76 93.184-21.76 221.632-69.44 323.712-173.76 105.984 0 192 171.968 192 384s-86.016 384-192 384zM192 384h-64v128h64v-128zM832 192c-70.656 0-128 114.624-128 256s57.344 256 128 256 128-114.624 128-256-57.344-256-128-256z" />
<glyph unicode="&#xe943;" glyph-name="bullhorn" d="M832 832l-384-128h-192c-106.048 0-192-85.952-192-192-35.328 0-64-28.672-64-64s28.672-64 64-64c0-78.976 47.808-146.752 115.968-176.256l-51.968-335.744c0-35.392 28.672-64 64-64h128c35.328 0 64 28.608 64 64l48 320h16l384-128c105.984 0 192 171.968 192 384s-86.016 384-192 384zM256 448h-64v128h64v-128zM384 448h-64v128h64v-128zM832 192c-70.656 0-128 114.624-128 256s57.344 256 128 256 128-114.624 128-256-57.344-256-128-256zM832 512h-58.112c-3.584-20.096-5.888-41.408-5.888-64s2.304-43.904 5.888-64h58.112c35.392 0 64 28.672 64 64s-28.608 64-64 64z" />
<glyph unicode="&#xe944;" glyph-name="calendar" d="M832-192h-640c-106.048 0-192 86.016-192 192v640c0 83.456 53.632 153.792 128 180.224v-84.224c0-53.056 43.008-96 96-96s96 42.944 96 96v96h384v-96c0-53.056 43.008-96 96-96s96 42.944 96 96v84.224c74.368-26.432 128-96.768 128-180.224v-640c0-105.984-85.952-192-192-192zM896 512h-768v-512c0-35.392 28.608-64 64-64h640c35.392 0 64 28.608 64 64v512zM640 192h128v-128h-128v128zM640 384h128v-128h-128v128zM448 192h128v-128h-128v128zM448 384h128v-128h-128v128zM256 192h128v-128h-128v128zM256 384h128v-128h-128v128zM800 704c-17.664 0-32 14.336-32 32v96h64v-96c0-17.664-14.336-32-32-32zM224 704c-17.664 0-32 14.336-32 32v96h64v-96c0-17.664-14.336-32-32-32z" />
<glyph unicode="&#xe945;" glyph-name="camera-2" d="M960-128h-896c-35.392 0-64 28.608-64 64v640c0 35.328 28.608 64 64 64h192v64c0 35.328 28.608 64 64 64h384c35.392 0 64-28.672 64-64v-64h192c35.392 0 64-28.672 64-64v-640c0-35.392-28.608-64-64-64zM896 512h-256v128h-256v-128h-256v-512h768v512zM224 448c17.664 0 32-14.336 32-32s-14.336-32-32-32-32 14.336-32 32c0 17.664 14.336 32 32 32zM512 448c106.048 0 192-85.952 192-192 0-105.984-85.952-192-192-192s-192 86.016-192 192c0 106.048 85.952 192 192 192zM512 128c70.656 0 128 57.344 128 128s-57.344 128-128 128-128-57.344-128-128 57.344-128 128-128z" />
<glyph unicode="&#xe946;" glyph-name="camera-3" d="M960-192h-896c-35.392 0-64 28.608-64 64v704c0 35.328 28.608 64 64 64h64v64h64v-64h128v128c0 35.328 28.608 64 64 64h256c35.392 0 64-28.672 64-64v-128h256c35.392 0 64-28.672 64-64v-704c0-35.392-28.608-64-64-64zM576 704h-128v-64h128v64zM896 512h-768v-192h241.792c35.2 38.976 85.568 64 142.208 64s107.008-25.024 142.208-64v0h241.792v192zM384 192c0-70.656 57.344-128 128-128s128 57.344 128 128-57.344 128-128 128-128-57.344-128-128zM896 256h-203.776c7.168-20.096 11.776-41.408 11.776-64 0-105.984-85.952-192-192-192s-192 86.016-192 192c0 22.592 4.608 43.904 11.776 64v0h-203.776v-320h768v320zM832 384h-128v64h128v-64zM320 448h64v-64h-64v64zM192 448h64v-64h-64v64z" />
<glyph unicode="&#xe947;" glyph-name="camera" d="M960 640h-128c-35.392 0-64 28.672-64 64s-28.608 64-64 64h-384c-35.392 0-64-28.672-64-64s-28.608-64-64-64h-128c-35.392 0-64-28.672-64-64v-640c0-35.392 28.608-64 64-64h896c35.392 0 64 28.608 64 64v640c0 35.328-28.608 64-64 64zM512 0c-176.768 0-320 143.232-320 320 0 176.704 143.232 320 320 320s320-143.296 320-320c0-176.768-143.232-320-320-320zM512 512c-106.048 0-192-85.952-192-192 0-105.984 85.952-192 192-192s192 86.016 192 192c0 106.048-85.952 192-192 192z" />
<glyph unicode="&#xe948;" glyph-name="cassette" d="M832-64v0h-64c0 70.656-57.344 128-128 128h-256c-70.656 0-128-57.344-128-128h-64c-106.048 0-192 86.016-192 192v384c0 106.048 85.952 192 192 192h640c105.984 0 192-85.952 192-192v-384c0-105.984-86.016-192-192-192zM832 0h64v64h-64v-64zM128 0h64v64h-64v-64zM896 512c0 35.328-28.608 64-64 64h-640c-35.328 0-64-28.672-64-64v-320c0-35.392 28.672-64 64-64h640c35.392 0 64 28.608 64 64v320zM736 192c-52.992 0-96 43.008-96 96s43.008 96 96 96 96-43.008 96-96-43.008-96-96-96zM192 512h640v-64h-640v64zM288 384c53.056 0 96-43.008 96-96s-42.944-96-96-96-96 43.008-96 96 42.944 96 96 96zM576 256h-128v64h128v-64zM416 0h192c41.728 0 76.864-26.816 90.112-64h-372.224c13.184 37.184 48.384 64 90.112 64z" />
<glyph unicode="&#xe949;" glyph-name="clipboard-2" d="M896 768h-128v-128h64v-704h-640v704h64v128h-128c-35.392 0-64-28.672-64-64v-832c0-35.392 28.608-64 64-64h768c35.392 0 64 28.608 64 64v832c0 35.328-28.608 64-64 64zM384 576h256c35.392 0 64 28.672 64 64v128h-128v64h-128v-64h-128v-128c0-35.328 28.608-64 64-64zM448 704h128v-64h-128v64zM256 0h512v576h-64c0-35.328-28.608-64-64-64h-256c-35.392 0-64 28.672-64 64h-64v-576zM320 448h384v-64h-384v64zM320 320h256v-64h-256v64zM320 192h320v-64h-320v64z" />
<glyph unicode="&#xe94a;" glyph-name="clipboard" d="M896-192h-768c-35.392 0-64 28.608-64 64v832c0 35.328 28.608 64 64 64h128v-128h-64v-704h640v704h-64v128h128c35.392 0 64-28.672 64-64v-832c0-35.392-28.608-64-64-64zM256 576h64c0-35.328 28.608-64 64-64h256c35.392 0 64 28.672 64 64h64v-576h-512v576zM640 576h-256c-35.392 0-64 28.672-64 64v128h128v64h128v-64h128v-128c0-35.328-28.608-64-64-64zM576 704h-128v-64h128v64z" />
<glyph unicode="&#xe94b;" glyph-name="clock" d="M512 832c-282.752 0-512-229.248-512-512s229.248-512 512-512c282.752 0 512 229.248 512 512s-229.248 512-512 512zM512-64c-212.032 0-384 171.968-384 384s171.968 384 384 384 384-171.968 384-384-171.968-384-384-384zM704 384h-128v128c0 35.392-28.672 64-64 64s-64-28.608-64-64v-192c0-35.392 28.672-64 64-64h192c35.392 0 64 28.608 64 64s-28.608 64-64 64z" />
<glyph unicode="&#xe94c;" glyph-name="cloud-add-2" d="M832-64h-576c-141.376 0-256 114.624-256 256v64c0 141.376 114.624 256 256 256 24.32 0 47.424-4.48 69.696-10.816 24.512 115.84 127.168 202.816 250.304 202.816 141.376 0 256-114.624 256-256 0-22.592-3.904-44.096-9.344-64.96 3.136 0.192 6.144 0.96 9.344 0.96 106.048 0 192-86.016 192-192v-64c0-106.048-85.952-192-192-192zM544 384c-88.384 0-160-71.616-160-160s71.616-160 160-160 160 71.616 160 160-71.616 160-160 160zM576 128h-64v64h-64v64h64v64h64v-64h64v-64h-64v-64z" />
<glyph unicode="&#xe94d;" glyph-name="cloud-add" d="M736-192c-159.040 0-288 128.96-288 288s128.96 288 288 288 288-128.96 288-288-128.96-288-288-288zM736 256c-88.384 0-160-71.616-160-160s71.616-160 160-160 160 71.616 160 160-71.616 160-160 160zM768 0h-64v64h-64v64h64v64h64v-64h64v-64h-64v-64zM822.656 511.040l-86.656 0.96c-229.376 0-416-186.624-416-416 0-10.816 0.832-21.376 1.6-32h-65.6c-141.376 0-256 114.624-256 256v64c0 141.376 114.624 256 256 256 24.32 0 47.424-4.48 69.696-10.816 24.512 115.84 127.168 202.816 250.304 202.816 141.376 0 256-114.624 256-256 0-22.592-3.904-44.096-9.344-64.96z" />
<glyph unicode="&#xe94e;" glyph-name="cloud-download" d="M832 64h-11.52c-1.152 3.136-1.856 6.4-3.136 9.408-21.248 51.456-49.344 89.92-113.344 107.648v74.944c0 105.856-86.144 192-192 192s-192-86.144-192-192v-74.816c-64-17.728-92.096-56.192-113.344-107.456-0.64-1.472-0.96-3.136-1.472-4.608-117.056 23.552-205.184 126.912-205.184 250.88v64c0 141.376 114.624 256 256 256 24.32 0 47.424-4.48 69.696-10.816 24.512 115.84 127.168 202.816 250.304 202.816 141.376 0 256-114.624 256-256 0-22.592-3.904-44.096-9.344-64.96 3.136 0.192 6.144 0.96 9.344 0.96 106.048 0 192-86.016 192-192v-64c0-106.048-85.952-192-192-192zM384 64h64.128v192c0 35.392 28.608 64 64 64 35.456 0 64.064-28.608 64.064-64v-192h63.872c25.856 0 49.28-15.616 59.136-39.488 2.496-6.016 3.968-12.096 4.608-18.368 1.728-18.752-4.736-37.632-18.496-51.392l-128.064-128c-12.48-12.48-28.864-18.752-45.248-18.752s-32.768 6.272-45.248 18.752l-128 128c-13.632 13.76-20.096 32.64-18.368 51.392 0.512 6.272 1.984 12.352 4.48 18.368 9.92 23.872 33.28 39.488 59.136 39.488z" />
<glyph unicode="&#xe94f;" glyph-name="cloud-remove-2" d="M832 384c-3.2 0-6.208-0.768-9.344-0.96 5.44 20.864 9.344 42.368 9.344 64.96 0 141.376-114.624 256-256 256-123.136 0-225.792-86.976-250.304-202.816-22.336 6.336-45.312 10.816-69.696 10.816-141.376 0-256-114.624-256-256v-64c0-141.376 114.624-256 256-256h576c106.048 0 192 85.952 192 192v64c0 105.984-85.952 192-192 192zM544 64c-88.384 0-160 71.616-160 160s71.616 160 160 160 160-71.616 160-160-71.616-160-160-160zM448 192h192v64h-192v-64z" />
<glyph unicode="&#xe950;" glyph-name="cloud-remove" d="M736-192c-159.040 0-288 128.96-288 288s128.96 288 288 288 288-128.96 288-288-128.96-288-288-288zM736 256c-88.384 0-160-71.616-160-160s71.616-160 160-160 160 71.616 160 160-71.616 160-160 160zM640 128h192v-64h-192v64zM736 512c-229.376 0-416-186.624-416-416 0-10.816 0.832-21.376 1.6-32h-65.6c-141.376 0-256 114.624-256 256v64c0 141.376 114.624 256 256 256 24.32 0 47.424-4.48 69.696-10.816 24.512 115.84 127.168 202.816 250.304 202.816 141.376 0 256-114.624 256-256 0-22.592-3.904-44.096-9.344-64.96l-86.656 0.96z" />
<glyph unicode="&#xe951;" glyph-name="cloud-upload" d="M557.376 301.248l128-128c13.632-13.76 20.096-32.64 18.368-51.392-0.512-6.272-1.984-12.352-4.48-18.368-9.856-23.872-33.28-39.488-59.136-39.488h-64.128v-192c0-35.392-28.608-64-64-64s-64 28.608-64 64v192h-63.872c-25.856 0-49.28 15.616-59.136 39.488-2.496 6.016-3.968 12.096-4.608 18.368-1.728 18.752 4.736 37.632 18.496 51.392l128 128c12.48 12.48 28.864 18.752 45.248 18.752s32.768-6.272 45.248-18.752zM832 512c106.048 0 192-86.016 192-192v-64c0-106.048-85.952-192-192-192h-11.456c5.504 15.424 9.408 31.168 10.624 46.016 5.312 56.832-14.656 112.704-55.296 153.728l-128 128c-36.224 36.288-84.48 56.256-135.744 56.256s-99.52-19.968-135.808-56.256l-128-128c-40.576-40.576-60.736-96.64-55.36-154.624 1.408-13.376 4.608-26.368 8.576-39.040-115.136 24.96-201.536 127.232-201.536 249.92v64c0 141.376 114.624 256 256 256 24.384 0 47.36-4.48 69.696-10.816 24.512 115.84 127.168 202.816 250.304 202.816 141.376 0 256-114.624 256-256 0-22.592-3.904-44.096-9.344-64.96 3.136 0.192 6.144 0.96 9.344 0.96z" />
<glyph unicode="&#xe952;" glyph-name="cloud" d="M0 256c0 141.376 114.624 256 256 256 24.32 0 47.424-4.48 69.696-10.816 24.512 115.84 127.168 202.816 250.304 202.816 141.376 0 256-114.624 256-256 0-22.592-3.904-44.096-9.344-64.96 3.136 0.192 6.144 0.96 9.344 0.96 106.048 0 192-86.016 192-192v0-64c0-106.048-85.952-192-192-192h-576c-141.376 0-256 114.624-256 256v0 64z" />
<glyph unicode="&#xe953;" glyph-name="cmd" d="M832 448v0 0h-64v-256h64c105.984 0 192-86.016 192-192s-86.016-192-192-192-192 86.016-192 192v0 0 64h-256v-64c0-105.984-85.952-192-192-192s-192 86.016-192 192 85.952 192 192 192v0 0h64v256h-64c-106.048 0-192 85.952-192 192s85.952 192 192 192 192-85.952 192-192c0-22.592-4.608-43.904-11.776-64h279.552c-7.168 20.096-11.776 41.408-11.776 64 0 106.048 86.016 192 192 192s192-85.952 192-192c0-106.048-86.016-192-192-192zM832-64c35.392 0 64 28.608 64 64s-28.608 64-64 64-64-28.608-64-64 28.608-64 64-64zM192 64c-35.328 0-64-28.608-64-64s28.672-64 64-64 64 28.608 64 64-28.672 64-64 64zM192 704c-35.328 0-64-28.672-64-64s28.672-64 64-64 64 28.672 64 64-28.672 64-64 64zM640 448h-256v-256h256v256zM832 704c-35.392 0-64-28.672-64-64s28.608-64 64-64 64 28.672 64 64-28.608 64-64 64z" />
<glyph unicode="&#xe954;" glyph-name="code" d="M832-192h-640c-106.048 0-192 86.016-192 192v640c0 106.048 85.952 192 192 192h640c105.984 0 192-85.952 192-192v-640c0-105.984-86.016-192-192-192zM896 640c0 35.328-28.608 64-64 64h-640c-35.328 0-64-28.672-64-64v-640c0-35.392 28.672-64 64-64h640c35.392 0 64 28.608 64 64v640zM768 256v-64c0-105.984-86.016-192-192-192v128c35.392 0 64 28.608 64 64v64c35.392 0 64 28.672 64 64s-28.608 64-64 64v64c0 35.328-28.608 64-64 64v128c105.984 0 192-85.952 192-192v-64c35.392 0 64-28.672 64-64s-28.608-64-64-64zM256 192v64c-35.328 0-64 28.672-64 64s28.672 64 64 64v64c0 106.048 85.952 192 192 192v-128c-35.328 0-64-28.672-64-64v-64c-35.328 0-64-28.672-64-64s28.672-64 64-64v-64c0-35.392 28.672-64 64-64v-128c-106.048 0-192 86.016-192 192z" />
<glyph unicode="&#xe955;" glyph-name="commit" d="M960 256h-267.776c-26.432-74.432-96.704-128-180.224-128-83.456 0-153.792 53.568-180.224 128h-267.776c-35.328 0-64 28.608-64 64s28.672 64 64 64h267.776c26.432 74.368 96.768 128 180.224 128 83.52 0 153.792-53.632 180.224-128h267.776c35.392 0 64-28.608 64-64s-28.608-64-64-64zM512 384c-35.328 0-64-28.608-64-64s28.672-64 64-64c35.392 0 64 28.608 64 64s-28.608 64-64 64z" />
<glyph unicode="&#xe956;" glyph-name="compass" d="M512-192c-282.752 0-512 229.248-512 512s229.248 512 512 512c282.752 0 512-229.248 512-512s-229.248-512-512-512zM512 704c-212.032 0-384-171.968-384-384s171.968-384 384-384 384 171.968 384 384-171.968 384-384 384zM330.944 139.008c-49.984 49.92 40.512 221.504 90.56 271.488 49.984 49.984 221.568 140.48 271.488 90.496 49.984-49.92-40.512-221.504-90.496-271.488s-221.504-140.48-271.552-90.496zM647.744 455.744c-25.024 25.024-155.968-65.472-180.992-90.496l90.496-90.496c25.024 25.024 115.52 155.968 90.496 180.992z" />
<glyph unicode="&#xe957;" glyph-name="compose-2" d="M576 128c-54.336 0-104.512 17.216-145.92 46.080l-174.080-174.080h-64v64l576 576-437.632-326.208c-6.4 22.4-10.368 45.76-10.368 70.208 0 141.376 498.624 448 640 448 64 0 64 0 64-64 0-141.376-306.624-640-448-640zM896 233.792c46.976 61.248 90.496 128.384 128 195.328v-429.12c0-106.048-85.952-192-192-192h-640c-106.048 0-192 85.952-192 192v640c0 106.048 85.952 192 192 192h429.12c-66.944-37.504-134.080-81.024-195.328-128h-233.792c-35.392 0-64-28.608-64-64v-640c0-35.392 28.608-64 64-64h640c35.392 0 64 28.608 64 64v233.792z" />
<glyph unicode="&#xe958;" glyph-name="compose-3" d="M768 832l-448-448-128-384 384 128 448 448-256 256zM320 128l64 192 128-128-192-64zM576 256l-128 128 192 192 128-128-192-192zM896 267.008l128 128v-395.008c0-106.048-85.952-192-192-192h-640c-106.048 0-192 85.952-192 192v640c0 106.048 85.952 192 192 192h395.008l-128-128h-267.008c-35.392 0-64-28.608-64-64v-640c0-35.392 28.608-64 64-64h640c35.392 0 64 28.608 64 64v267.008z" />
<glyph unicode="&#xe959;" glyph-name="compose-4" d="M986.496 613.44l-95.296-95.296-183.808 178.176 98.112 98.112c49.92 49.984 131.008 49.984 180.992 0 49.984-49.92 49.984-130.944 0-180.992zM835.392 462.4l-393.92-392.96-249.472-69.44 68.416 250.432 391.744 390.72 183.232-178.752zM986.496 613.44l-95.296-95.296-183.808 178.176 98.112 98.112c49.92 49.984 131.008 49.984 180.992 0 49.984-49.92 49.984-130.944 0-180.992zM835.392 462.4l-393.92-392.96-249.472-69.44 68.352 250.432 391.744 390.72 183.296-178.752zM896 342.016l128 127.936v-469.952c0-106.048-85.952-192-192-192h-640c-106.048 0-192 85.952-192 192v640c0 106.048 85.952 192 192 192h469.888l-128.256-128h-341.632c-35.328 0-64-28.672-64-64v-640c0-35.392 28.672-64 64-64h640c35.392 0 64 28.608 64 64v342.016z" />
<glyph unicode="&#xe95a;" glyph-name="compose" d="M832 448c106.048 0 192 85.952 192 192s-85.952 192-192 192v0c-576 0-640-768-640-768v-32c0-17.664 14.336-32 32-32s32 14.336 32 32v32c0 0 6.528 90.624 64.512 162.624 0-0.96-0.512-1.664-0.512-2.624 0-52.992 43.008-96 96-96s96 43.008 96 96c0 16.128-4.992 30.656-12.032 44.032 13.376-7.040 27.84-12.032 44.032-12.032 52.992 0 96 43.008 96 96 0 16.128-4.992 30.656-12.032 44.032 13.376-7.040 27.84-12.032 44.032-12.032 46.528 0 83.456 33.664 92.224 77.568 21.12-8.192 43.712-13.568 67.776-13.568zM896 326.464c47.552 9.664 90.624 30.848 128 59.136v-385.6c0-106.048-85.952-192-192-192h-640c-106.048 0-192 85.952-192 192v640c0 106.048 85.952 192 192 192h246.208c-49.984-37.248-94.592-80.192-133.248-128h-112.96c-35.328 0-64-28.672-64-64v-640c0-35.392 28.672-64 64-64h640c35.392 0 64 28.608 64 64v326.464z" />
<glyph unicode="&#xe95b;" glyph-name="contract-2" d="M832-192h-640c-106.048 0-192 85.952-192 192v640c0 106.048 85.952 192 192 192h640c105.984 0 192-85.952 192-192v-640c0-106.048-86.016-192-192-192zM896 640c0 35.328-28.608 64-64 64h-640c-35.328 0-64-28.672-64-64v-640c0-35.392 28.672-64 64-64h640c35.392 0 64 28.608 64 64v640zM576 192c0 35.392 28.608 64 64 64h192l-256-256v192zM640 384c-35.392 0-64 28.608-64 64v192l256-256h-192zM384 256c35.328 0 64-28.608 64-64v-192l-256 256h192zM384 384h-192l256 256v-192c0-35.392-28.672-64-64-64z" />
<glyph unicode="&#xe95c;" glyph-name="contract-3" d="M384 256c35.392 0 64-28.608 64-64v-192c0-25.856-15.616-49.28-39.488-59.136-7.936-3.264-16.256-4.864-24.512-4.864-16.64 0-33.024 6.528-45.248 18.752l-50.752 50.752-178.752-178.752c-25.024-25.024-65.472-25.024-90.496 0s-25.024 65.472 0 90.496l178.752 178.752-50.752 50.752c-18.304 18.304-23.744 45.824-13.888 69.76 9.856 23.872 33.28 39.488 59.136 39.488h192zM640 384c-35.392 0-64 28.608-64 64v192c0 25.856 15.616 49.28 39.488 59.136 7.936 3.264 16.256 4.864 24.512 4.864 16.64 0 33.024-6.528 45.248-18.752l50.752-50.752 178.752 178.752c25.024 25.024 65.472 25.024 90.496 0s25.024-65.472 0-90.496l-178.752-178.752 50.752-50.752c18.304-18.304 23.744-45.824 13.888-69.76-9.856-23.872-33.28-39.488-59.136-39.488h-192zM408.512 699.136c23.872-9.856 39.488-33.28 39.488-59.136v-192c0-35.392-28.608-64-64-64h-192c-25.856 0-49.28 15.616-59.136 39.488-9.856 23.936-4.416 51.456 13.888 69.76l50.752 50.752-178.752 178.752c-25.024 25.024-25.024 65.472 0 90.496s65.472 25.024 90.496 0l178.752-178.752 50.752 50.752c12.224 12.224 28.608 18.752 45.248 18.752 8.256 0 16.576-1.6 24.512-4.864zM826.496 96l178.752-178.752c25.024-25.024 25.024-65.472 0-90.496s-65.472-25.024-90.496 0l-178.752 178.752-50.752-50.752c-12.224-12.224-28.608-18.752-45.248-18.752-8.256 0-16.576 1.6-24.512 4.864-23.872 9.856-39.488 33.28-39.488 59.136v192c0 35.392 28.608 64 64 64h192c25.856 0 49.28-15.616 59.136-39.488 9.856-23.936 4.416-51.456-13.888-69.76l-50.752-50.752z" />
<glyph unicode="&#xe95d;" glyph-name="contract" d="M1024 0c0-106.048-85.952-192-192-192h-640c-106.048 0-192 85.952-192 192v640c0 106.048 85.952 192 192 192h640c106.048 0 192-85.952 192-192v-640zM320 640c0 35.328-28.672 64-64 64h-64c-35.328 0-64-28.672-64-64v-64c0-35.328 28.672-64 64-64h64c35.328 0 64 28.672 64 64v64zM896 28.48l-119.872 119.872 44.864 43.712c18.304 18.304 23.808 55.168 13.888 79.040-9.92 23.936-33.28 48.896-59.136 48.896h-180.992c-17.664 0-43.072-16.512-54.656-28.096-11.52-11.52-28.096-36.928-28.096-54.592v-180.992c0-25.92 25.024-49.216 48.896-59.136s56.128-4.416 74.432 13.888l49.216 47.936 122.944-123.008h-615.488c-35.328 0-64 28.608-64 64v384h128c105.984 0 192 85.952 192 192v128h384c35.392 0 64-28.672 64-64v-611.52z" />
<glyph unicode="&#xe95e;" glyph-name="contrast" d="M512-192c-282.752 0-512 229.248-512 512s229.248 512 512 512 512-229.248 512-512-229.248-512-512-512zM512 704c-212.032 0-384-171.968-384-384 0-212.096 171.968-384 384-384s384 171.904 384 384c0 212.032-171.968 384-384 384zM512 0v640c176.768 0 320-143.296 320-320 0-176.768-143.232-320-320-320z" />
<glyph unicode="&#xe95f;" glyph-name="converge" d="M960 832c-35.392 0-64-28.672-64-64v-192c0-35.328-28.608-64-64-64h-192c-49.344 0-94.016-19.2-128-49.856-34.048 30.656-78.592 49.856-128 49.856h-192c-35.328 0-64 28.672-64 64v192c0 35.328-28.672 64-64 64s-64-28.672-64-64v-192c0-106.048 85.952-192 192-192h192c35.328 0 64-28.672 64-64v-256h-64c-25.856 0-49.28-15.616-59.136-39.488-9.856-23.936-4.352-51.456 13.888-69.76l128-128c12.48-12.48 28.864-18.752 45.248-18.752s32.768 6.272 45.248 18.752l128 128c18.304 18.304 23.744 45.824 13.888 69.76-9.856 23.872-33.28 39.488-59.136 39.488h-64v256c0 35.328 28.608 64 64 64h192c106.048 0 192 85.952 192 192v192c0 35.328-28.608 64-64 64z" />
<glyph unicode="&#xe960;" glyph-name="crate" d="M1005.504-81.024l-109.504 109.504v580.992l110.272 110.208c11.072-24.32 17.728-51.136 17.728-79.68v-640c0-29.056-6.912-56.32-18.496-81.024zM214.528 704l-107.392 107.392c25.664 12.736 54.208 20.608 84.864 20.608h640c30.656 0 59.2-7.872 84.864-20.608l-107.392-107.392h-594.944zM128 28.48l-109.504-109.504c-11.584 24.704-18.496 51.968-18.496 81.024v640c0 28.544 6.656 55.36 17.792 79.68l110.208-110.208v-580.992zM768 64h-512v128h512v-128zM256 576h512v-128h-512v128zM768 256h-512v128h512v-128zM807.488-64l108.096-108.096c-25.344-12.416-53.44-19.904-83.584-19.904h-640c-30.080 0-58.24 7.488-83.584 19.904l108.096 108.096h590.976z" />
<glyph unicode="&#xe961;" glyph-name="credit-card-2" d="M960 704h-896c-35.328 0-64-28.672-64-64v-640c0-35.392 28.672-64 64-64h896c35.392 0 64 28.608 64 64v640c0 35.328-28.608 64-64 64zM640 384h128v-128h-128v128zM448 384h128v-128h-128v128zM640 192v-64h-64v64h64zM448 192h64v-64h-64v64zM64 576c0 35.328 28.672 64 64 64h128c35.328 0 64-28.672 64-64v-64c0-35.392-28.672-64-64-64h-128c-35.328 0-64 28.608-64 64v64zM384 384v-128h-128v128h128zM192 0h-128v64h128v-64zM192 256h-128v128h128v-128zM704 0h-448v64h448v-64zM832 128h-64v64h64v-64zM960 128h-64v64h64v-64zM960 256h-128v128h128v-128z" />
<glyph unicode="&#xe962;" glyph-name="credit-card-3" d="M960-64h-896c-35.328 0-64 28.608-64 64v640c0 35.392 28.672 64 64 64h896c35.392 0 64-28.608 64-64v-640c0-35.392-28.608-64-64-64zM960 640h-896v-64h896v64zM960 448h-896v-448h896v448zM320 320h-192v64h192v-64zM192 192h-64v64h64v-64zM320 64h-192v64h192v-64zM608 384c22.72 0 44.352-4.928 64-13.504 19.648 8.576 41.28 13.504 64 13.504 88.384 0 160-71.616 160-160s-71.616-160-160-160c-22.72 0-44.352 4.928-64 13.504-19.648-8.576-41.28-13.504-64-13.504-88.384 0-160 71.616-160 160s71.616 160 160 160zM735.36 128.128c0.256 0 0.384-0.128 0.64-0.128 52.992 0 96 43.008 96 96s-43.008 96-96 96c-0.256 0-0.384-0.128-0.64-0.128 20.224-26.816 32.64-59.776 32.64-95.872s-12.416-69.12-32.64-95.872zM672 153.472c19.392 17.6 32 42.368 32 70.528s-12.608 52.928-32 70.528c-19.392-17.6-32-42.368-32-70.528s12.608-52.928 32-70.528zM608 128c0.256 0 0.384 0.128 0.64 0.128-20.224 26.752-32.64 59.776-32.64 95.872s12.416 69.056 32.64 95.872c-0.256 0-0.384 0.128-0.64 0.128-53.056 0-96-43.008-96-96s42.944-96 96-96z" />
<glyph unicode="&#xe963;" glyph-name="credit-card-4" d="M960-64h-896c-35.328 0-64 28.608-64 64v512h1024v-512c0-35.392-28.608-64-64-64zM560.448 361.536c-23.744 13.952-51.008 22.464-80.448 22.464-88.384 0-160-71.616-160-160s71.616-160 160-160c29.44 0 56.704 8.512 80.448 22.464-29.888 38.016-48.448 85.44-48.448 137.536s18.56 99.52 48.448 137.536zM736 384c-88.384 0-160-71.616-160-160s71.616-160 160-160 160 71.616 160 160-71.616 160-160 160zM0 640c0 35.392 28.672 64 64 64h896c35.392 0 64-28.608 64-64v-64h-1024v64z" />
<glyph unicode="&#xe964;" glyph-name="credit-card" d="M960-64h-896c-35.328 0-64 28.608-64 64v640c0 35.392 28.672 64 64 64h896c35.392 0 64-28.608 64-64v-640c0-35.392-28.608-64-64-64zM960 640h-896v-64h896v64zM960 448h-896v-448h896v448zM320 192h-192v192h192v-192zM256 64h-128v64h128v-64zM448 64h-128v64h128v-64zM640 64h-128v64h128v-64zM768 64h-64v64h64v-64zM896 64h-64v64h64v-64z" />
<glyph unicode="&#xe965;" glyph-name="crop" d="M896-192v64h64v64h64v-128h-128zM960 768h-64v64h128v-128h-64v64zM896-64h-768v768h768v-768zM768 576h-512v-512h512v512zM384 512c35.392 0 64-28.608 64-64s-28.608-64-64-64-64 28.608-64 64 28.608 64 64 64zM405.184 128h-85.184v95.808c28.672-34.432 59.84-85.312 85.184-95.808zM704 361.984v-233.984h-281.216c86.464 20.864 192.192 336.512 281.216 233.984zM64 704h-64v128h128v-64h-64v-64zM64-128h64v-64h-128v128h64v-64z" />
<glyph unicode="&#xe966;" glyph-name="cross" d="M832-192h-640c-106.048 0-192 85.952-192 192v640c0 106.048 85.952 192 192 192h640c105.984 0 192-85.952 192-192v-640c0-106.048-86.016-192-192-192zM896 640c0 35.392-28.608 64-64 64h-640c-35.328 0-64-28.608-64-64v-640c0-35.392 28.672-64 64-64h640c35.392 0 64 28.608 64 64v640zM692.992 139.008c-25.024-25.024-65.472-25.024-90.496 0l-90.496 90.496-90.496-90.496c-25.024-25.024-65.536-25.024-90.56 0-24.96 25.024-24.96 65.472 0 90.496l90.56 90.496-90.56 90.496c-24.96 25.024-24.96 65.472 0 90.496 25.024 25.024 65.536 25.024 90.56 0l90.496-90.496 90.496 90.496c25.024 25.024 65.472 25.024 90.496 0s25.024-65.472 0-90.496l-90.496-90.496 90.496-90.496c25.024-25.024 25.024-65.536 0-90.496z" />
<glyph unicode="&#xe967;" glyph-name="curlybrace-2" d="M832 192v0c-35.392 0-64-28.608-64-64v-128c0-105.984-86.016-192-192-192v128c35.392 0 64 28.608 64 64v128c0 105.984 86.016 192 192 192-105.984 0-192 85.952-192 192v128c0 35.328-28.608 64-64 64v128c105.984 0 192-85.952 192-192v-128c0-35.328 28.608-64 64-64 70.656 0 128-57.344 128-128s-57.344-128-128-128zM256 0v128c0 35.392-28.672 64-64 64v0c-70.656 0-128 57.344-128 128s57.344 128 128 128c35.328 0 64 28.672 64 64v128c0 106.048 85.952 192 192 192v-128c-35.328 0-64-28.672-64-64v0-128c0-106.048-85.952-192-192-192 106.048 0 192-86.016 192-192v-128c0-35.392 28.672-64 64-64v-128c-106.048 0-192 86.016-192 192z" />
<glyph unicode="&#xe968;" glyph-name="curlybrace" d="M896 448c70.656 0 128-57.344 128-128s-57.344-128-128-128c-35.392 0-64-28.608-64-64v-128c0-105.984-86.016-192-192-192v128c35.392 0 64 28.608 64 64v128c0 105.984 86.016 192 192 192-105.984 0-192 85.952-192 192v128c0 35.328-28.608 64-64 64v128c105.984 0 192-85.952 192-192v-128c0-35.328 28.608-64 64-64zM192 640c0 106.048 85.952 192 192 192v-128c-35.328 0-64-28.672-64-64v-128c0-106.048-85.952-192-192-192 106.048 0 192-86.016 192-192v-128c0-35.392 28.672-64 64-64v-128c-106.048 0-192 86.016-192 192v128c0 35.392-28.672 64-64 64-70.656 0-128 57.344-128 128s57.344 128 128 128c35.328 0 64 28.672 64 64v128zM512 384c35.328 0 64-28.672 64-64s-28.672-64-64-64c-35.328 0-64 28.672-64 64s28.672 64 64 64z" />
<glyph unicode="&#xe969;" glyph-name="database-add" d="M672-192c-159.040 0-288 128.96-288 288s128.96 288 288 288 288-128.96 288-288-128.96-288-288-288zM672 256c-88.384 0-160-71.616-160-160s71.616-160 160-160 160 71.616 160 160-71.616 160-160 160zM704 0h-64v64h-64v64h64v64h64v-64h64v-64h-64v-64zM832 492.032v-84.096c-9.6 4.928-18.88 10.24-28.992 14.336 18.496 20.608 28.992 43.904 28.992 69.76zM723.776 442.816c-17.024 2.496-34.048 5.184-51.776 5.184-74.432 0-143.168-23.36-200.064-62.784-8.064-0.256-15.744-1.216-23.936-1.216-212.032 0-384 85.952-384 192v64c0 106.048 171.968 192 384 192s384-85.952 384-192v-64c0-51.84-41.472-98.688-108.224-133.184zM403.968 321.728c-29.568-35.136-52.096-75.776-66.24-120.704-157.888 23.808-273.728 96.256-273.728 182.976v108.032c0-98.56 148.864-161.728 339.968-170.304zM324.096 136.832c-1.6-13.568-4.096-26.816-4.096-40.832 0-29.888 4.864-58.368 11.904-86.080-154.944 24.704-267.904 96.384-267.904 182.080v108.032c0-84.288 109.184-142.528 260.096-163.2zM357.632-59.392c26.048-52.544 64.064-97.856 111.552-131.584-7.104-0.128-13.952-1.024-21.184-1.024-212.032 0-384 85.952-384 192v108.032c0-90.432 125.376-151.296 293.632-167.424z" />
<glyph unicode="&#xe96a;" glyph-name="database-remove" d="M672-192c-159.040 0-288 128.96-288 288s128.96 288 288 288 288-128.96 288-288-128.96-288-288-288zM672 256c-88.384 0-160-71.616-160-160s71.616-160 160-160 160 71.616 160 160-71.616 160-160 160zM576 64v64h192v-64h-192zM832 492.032v-84.096c-9.6 4.928-18.88 10.24-28.992 14.336 18.496 20.608 28.992 43.904 28.992 69.76zM723.776 442.816c-17.024 2.496-34.048 5.184-51.776 5.184-74.432 0-143.168-23.36-200.064-62.784-8.064-0.256-15.744-1.216-23.936-1.216-212.032 0-384 85.952-384 192v64c0 106.048 171.968 192 384 192s384-85.952 384-192v-64c0-51.84-41.472-98.688-108.224-133.184zM403.968 321.728c-29.568-35.136-52.096-75.776-66.24-120.704-157.888 23.808-273.728 96.256-273.728 182.976v108.032c0-98.56 148.864-161.728 339.968-170.304zM324.096 136.832c-1.6-13.568-4.096-26.816-4.096-40.832 0-29.888 4.864-58.368 11.904-86.080-154.944 24.704-267.904 96.384-267.904 182.080v108.032c0-84.288 109.184-142.528 260.096-163.2zM357.632-59.392c26.048-52.544 64.064-97.856 111.552-131.584-7.104-0.128-13.952-1.024-21.184-1.024-212.032 0-384 85.952-384 192v108.032c0-90.432 125.376-151.296 293.632-167.424z" />
<glyph unicode="&#xe96b;" glyph-name="database" d="M512-192c-212.032 0-384 85.952-384 192v0 108.032c0-106.112 171.968-172.032 384-172.032s384 65.92 384 172.032v-108.032c0-106.048-171.968-192-384-192zM512 0c-212.032 0-384 85.952-384 192v108.032c0-106.112 171.968-172.032 384-172.032s384 65.92 384 172.032v-108.032c0-106.048-171.968-192-384-192zM512 192c-212.032 0-384 85.952-384 192v108.032c0-106.112 171.968-172.032 384-172.032s384 65.92 384 172.032v-108.032c0-106.048-171.968-192-384-192zM512 384c-212.032 0-384 85.952-384 192v64c0 106.048 171.968 192 384 192s384-85.952 384-192v-64c0-106.048-171.968-192-384-192z" />
<glyph unicode="&#xe96c;" glyph-name="delete" d="M512-192c-282.752 0-512 229.248-512 512s229.248 512 512 512 512-229.248 512-512-229.248-512-512-512zM512 704c-212.032 0-384-171.968-384-384s171.968-384 384-384 384 171.968 384 384-171.968 384-384 384zM692.992 139.008c-25.024-25.024-65.472-25.024-90.496 0l-90.496 90.496-90.496-90.496c-25.024-25.024-65.536-25.024-90.56 0s-25.024 65.472 0 90.496l90.56 90.496-90.56 90.496c-25.024 25.024-25.024 65.536 0 90.56s65.536 25.024 90.56 0l90.496-90.56 90.496 90.56c25.024 25.024 65.472 25.024 90.496 0s25.024-65.536 0-90.56l-90.496-90.496 90.496-90.496c25.024-25.024 25.024-65.536 0-90.496z" />
<glyph unicode="&#xe96d;" glyph-name="distribute-bottom-edges" d="M832-192h-640c-106.048 0-192 85.952-192 192v640c0 106.048 85.952 192 192 192h640c106.048 0 192-85.952 192-192v-640c0-106.048-85.952-192-192-192zM896 640c0 35.392-28.608 64-64 64h-640c-35.392 0-64-28.608-64-64v-640c0-35.392 28.608-64 64-64h640c35.392 0 64 28.608 64 64v640zM320 64h-128v64h64v64c0 35.392 28.608 64 64 64h384c35.392 0 64-28.608 64-64v-64h64v-64h-512zM704 192h-384v-64h384v64zM448 384h-256v64h192v64c0 35.392 28.608 64 64 64h128c35.392 0 64-28.608 64-64v-64h192v-64h-384zM576 512h-128v-64h128v64z" />
<glyph unicode="&#xe96e;" glyph-name="distribute-horizontal-centers" d="M832-192h-640c-106.048 0-192 85.952-192 192v640c0 106.048 85.952 192 192 192h640c106.048 0 192-85.952 192-192v-640c0-106.048-85.952-192-192-192zM896 640c0 35.392-28.608 64-64 64h-640c-35.392 0-64-28.608-64-64v-640c0-35.392 28.608-64 64-64h640c35.392 0 64 28.608 64 64v640zM704 64v-64h-64v64c-35.392 0-64 28.608-64 64v384c0 35.392 28.608 64 64 64v64h64v-64c35.392 0 64-28.608 64-64v-384c0-35.392-28.608-64-64-64zM704 512h-64v-384h64v384zM384 192v-192h-64v192c-35.392 0-64 28.608-64 64v128c0 35.328 28.608 64 64 64v192h64v-192c35.392 0 64-28.672 64-64v-128c0-35.392-28.608-64-64-64zM384 384h-64v-128h64v128z" />
<glyph unicode="&#xe96f;" glyph-name="distribute-left-edges" d="M832-192h-640c-106.048 0-192 85.952-192 192v640c0 106.048 85.952 192 192 192h640c106.048 0 192-85.952 192-192v-640c0-106.048-85.952-192-192-192zM896 640c0 35.392-28.608 64-64 64h-640c-35.392 0-64-28.608-64-64v-640c0-35.392 28.608-64 64-64h640c35.392 0 64 28.608 64 64v640zM704 192h-64v-192h-64v640h64v-192h64c35.392 0 64-28.672 64-64v-128c0-35.392-28.608-64-64-64zM704 384h-64v-128h64v128zM384 64h-64v-64h-64v640h64v-64h64c35.392 0 64-28.608 64-64v-384c0-35.392-28.608-64-64-64zM384 512h-64v-384h64v384z" />
<glyph unicode="&#xe970;" glyph-name="distribute-right-edges" d="M192-192h640c106.048 0 192 85.952 192 192v640c0 106.048-85.952 192-192 192h-640c-106.048 0-192-85.952-192-192v-640c0-106.048 85.952-192 192-192zM128 640c0 35.392 28.608 64 64 64h640c35.392 0 64-28.608 64-64v-640c0-35.392-28.608-64-64-64h-640c-35.392 0-64 28.608-64 64v640zM320 192h64v-192h64v640h-64v-192h-64c-35.392 0-64-28.672-64-64v-128c0-35.392 28.608-64 64-64zM320 384h64v-128h-64v128zM640 64h64v-64h64v640h-64v-64h-64c-35.392 0-64-28.608-64-64v-384c0-35.392 28.608-64 64-64zM640 512h64v-384h-64v384z" />
<glyph unicode="&#xe971;" glyph-name="distribute-top-edges" d="M192 192h64v-64c0-35.392 28.672-64 64-64h384c35.392 0 64 28.608 64 64v64h64v64h-640v-64zM320 192h384v-64h-384v64zM192 512h192v-64c0-35.392 28.672-64 64-64h128c35.392 0 64 28.608 64 64v64h192v64h-640v-64zM448 512h128v-64h-128v64zM832 832h-640c-106.048 0-192-85.952-192-192v-640c0-106.048 85.952-192 192-192h640c105.984 0 192 85.952 192 192v640c0 106.048-86.016 192-192 192zM896 0c0-35.392-28.608-64-64-64h-640c-35.328 0-64 28.608-64 64v640c0 35.392 28.672 64 64 64h640c35.392 0 64-28.608 64-64v-640z" />
<glyph unicode="&#xe972;" glyph-name="distribute-vertical-centers" d="M704 256h-384c-35.328 0-64-28.608-64-64h-64v-64h64c0-35.392 28.672-64 64-64h384c35.392 0 64 28.608 64 64h64v64h-64c0 35.392-28.608 64-64 64zM704 128h-384v64h384v-64zM832 832h-640c-106.048 0-192-85.952-192-192v-640c0-106.048 85.952-192 192-192h640c106.048 0 192 85.952 192 192v640c0 106.048-85.952 192-192 192zM896 0c0-35.392-28.608-64-64-64h-640c-35.328 0-64 28.608-64 64v640c0 35.392 28.672 64 64 64h640c35.392 0 64-28.608 64-64v-640zM576 576h-128c-35.328 0-64-28.608-64-64h-192v-64h192c0-35.392 28.672-64 64-64h128c35.392 0 64 28.608 64 64h192v64h-192c0 35.392-28.608 64-64 64zM576 448h-128v64h128v-64z" />
<glyph unicode="&#xe973;" glyph-name="document-add" d="M832 334.272v241.728l-256 256h-448c-35.392 0-64-28.608-64-64v-896c0-35.392 28.608-64 64-64h544c159.040 0 288 128.96 288 288 0 99.648-51.072 186.688-128 238.272zM432.64-64h-240.64v768h320v-192h192v-131.2c-10.56 1.472-21.056 3.2-32 3.2-159.040 0-288-128.96-288-288 0-59.264 17.984-114.24 48.64-160zM672-64c-88.384 0-160 71.616-160 160s71.616 160 160 160 160-71.616 160-160-71.616-160-160-160zM704 128h64v-64h-64v-64h-64v64h-64v64h64v64h64z" />
<glyph unicode="&#xe974;" glyph-name="document-remove" d="M576 128h192v-64h-192zM832 334.272v241.728l-256 256h-448c-35.392 0-64-28.608-64-64v-896c0-35.392 28.608-64 64-64h544c159.040 0 288 128.96 288 288 0 99.648-51.072 186.688-128 238.272zM432.64-64h-240.64v768h320v-192h192v-131.2c-10.56 1.472-21.056 3.2-32 3.2-159.040 0-288-128.96-288-288 0-59.264 17.984-114.24 48.64-160zM672-64c-88.384 0-160 71.616-160 160s71.616 160 160 160 160-71.616 160-160-71.616-160-160-160z" />
<glyph unicode="&#xe975;" glyph-name="document" d="M832-192h-640c-35.392 0-64 28.608-64 64v896c0 35.392 28.608 64 64 64h448l256-256v-704c0-35.392-28.608-64-64-64zM576 512v192h-320v-768h512v576h-192z" />
<glyph unicode="&#xe976;" glyph-name="droplet" d="M512-192c-176.768 0-320 143.232-320 320s320 704 320 704 320-527.232 320-704-143.232-320-320-320zM700.416 156.736c-16.512-89.152-94.464-156.736-188.416-156.736s-171.904 67.584-188.416 156.736c-2.176-10.688-3.584-20.608-3.584-28.736 0-106.048 85.952-192 192-192s192 85.952 192 192c0 8.128-1.408 18.048-3.584 28.736z" />
<glyph unicode="&#xe977;" glyph-name="ellipsis" d="M896 192c-70.656 0-128 57.344-128 128s57.344 128 128 128 128-57.344 128-128-57.344-128-128-128zM512 192c-70.656 0-128 57.344-128 128s57.344 128 128 128 128-57.344 128-128-57.344-128-128-128zM128 192c-70.656 0-128 57.344-128 128s57.344 128 128 128 128-57.344 128-128-57.344-128-128-128z" />
<glyph unicode="&#xe978;" glyph-name="envelope" d="M832-64h-640c-106.048 0-192 85.952-192 192v384c0 106.048 85.952 192 192 192h640c105.984 0 192-85.952 192-192v-384c0-106.048-86.016-192-192-192zM192 576c-15.68 0-29.44-6.272-40.576-15.616l360.576-240.384 360.64 240.384c-11.136 9.344-25.024 15.616-40.64 15.616h-640zM896 448l-384-256-384 256v-256l192 64-173.248-173.248c11.584-11.584 27.584-18.752 45.248-18.752h640c17.664 0 33.664 7.168 45.248 18.752l-173.248 173.248 192-64v256z" />
<glyph unicode="&#xe979;" glyph-name="exclude" d="M960-192h-640c-35.328 0-64 28.608-64 64v192h-192c-35.328 0-64 28.608-64 64v640c0 35.392 28.672 64 64 64h640c35.392 0 64-28.608 64-64v-192h192c35.392 0 64-28.672 64-64v-640c0-35.392-28.608-64-64-64zM640 448h-256v-256h256v256z" />
<glyph unicode="&#xe97a;" glyph-name="expand-2" d="M832-192h-640c-106.048 0-192 85.952-192 192v640c0 106.048 85.952 192 192 192h640c105.984 0 192-85.952 192-192v-640c0-106.048-86.016-192-192-192zM896 640c0 35.328-28.608 64-64 64h-640c-35.328 0-64-28.672-64-64v-640c0-35.392 28.672-64 64-64h640c35.392 0 64 28.608 64 64v640zM768 0h-192l256 256v-192c0-35.392-28.608-64-64-64zM768 640c35.392 0 64-28.672 64-64v-192l-256 256h192zM256 0c-35.328 0-64 28.608-64 64v192l256-256h-192zM192 576c0 35.328 28.672 64 64 64h192l-256-256v192z" />
<glyph unicode="&#xe97b;" glyph-name="expand-3" d="M250.496 672l178.752-178.752c25.024-25.024 25.024-65.472 0-90.496s-65.472-25.024-90.496 0l-178.752 178.752-50.752-50.752c-12.224-12.224-28.608-18.752-45.248-18.752-8.256 0-16.576 1.6-24.512 4.864-23.872 9.92-39.488 33.28-39.488 59.136v192c0 35.328 28.672 64 64 64h192c25.856 0 49.216-15.616 59.136-39.488 9.92-23.936 4.416-51.456-13.888-69.76l-50.752-50.752zM960 832c35.392 0 64-28.672 64-64v-192c0-25.856-15.616-49.216-39.488-59.136-7.936-3.264-16.256-4.864-24.512-4.864-16.64 0-33.024 6.528-45.248 18.752l-50.752 50.752-178.752-178.752c-25.024-25.024-65.472-25.024-90.496 0s-25.024 65.472 0 90.496l178.752 178.752-50.752 50.752c-18.304 18.304-23.744 45.824-13.888 69.76 9.856 23.872 33.28 39.488 59.136 39.488h192zM338.752 237.248c25.024 25.024 65.472 25.024 90.496 0s25.024-65.472 0-90.496l-178.752-178.752 50.752-50.752c18.304-18.304 23.808-45.824 13.888-69.76-9.92-23.872-33.28-39.488-59.136-39.488h-192c-35.328 0-64 28.608-64 64v192c0 25.856 15.616 49.28 39.488 59.136 7.936 3.264 16.256 4.864 24.512 4.864 16.64 0 33.024-6.528 45.248-18.752l50.752-50.752 178.752 178.752zM984.512 123.136c23.872-9.856 39.488-33.28 39.488-59.136v-192c0-35.392-28.608-64-64-64h-192c-25.856 0-49.28 15.616-59.136 39.488-9.856 23.936-4.416 51.456 13.888 69.76l50.752 50.752-178.752 178.752c-25.024 25.024-25.024 65.472 0 90.496s65.472 25.024 90.496 0l178.752-178.752 50.752 50.752c12.224 12.224 28.608 18.752 45.248 18.752 8.256 0 16.576-1.6 24.512-4.864z" />
<glyph unicode="&#xe97c;" glyph-name="expand" d="M832 832h-640c-106.048 0-192-85.952-192-192v-640c0-106.048 85.952-192 192-192h640c106.048 0 192 85.952 192 192v640c0 106.048-85.952 192-192 192zM128 640c0 35.328 28.672 64 64 64h64c35.328 0 64-28.672 64-64v-64c0-35.328-28.672-64-64-64h-64c-35.328 0-64 28.672-64 64v64zM896 0c0-35.392-28.608-64-64-64h-640c-35.328 0-64 28.608-64 64v384h229.504l152.384-152.384-43.136-44.224c-18.304-18.304-23.808-50.624-13.888-74.496s33.216-48.896 59.136-48.896h180.992c17.664 0 39.168 16.64 50.752 28.096 11.584 11.648 24.256 37.056 24.256 54.72v181.056c0 25.856-21.12 49.216-44.992 59.136s-56.96 4.416-75.264-13.888l-48.576-49.856-151.168 151.232v229.504h384c35.392 0 64-28.672 64-64v-640z" />
<glyph unicode="&#xe97d;" glyph-name="eye-2" d="M512-128c-345.984 0-512 448-512 448s166.016 448 512 448 512-448 512-448-166.016-448-512-448zM512 640c-176.768 0-320-143.232-320-320s143.232-320 320-320 320 143.232 320 320-143.232 320-320 320zM512 128c-106.048 0-192 85.952-192 192 0 22.592 4.608 43.904 11.776 64h116.224v116.224c20.096 7.168 41.408 11.776 64 11.776 106.048 0 192-85.952 192-192s-85.952-192-192-192z" />
<glyph unicode="&#xe97e;" glyph-name="eye" d="M512 0c-384 0-512 320-512 320s128 320 512 320 512-320 512-320-128-320-512-320zM512 512c-106.048 0-192-85.952-192-192s85.952-192 192-192 192 85.952 192 192-85.952 192-192 192zM512 192c-70.656 0-128 57.344-128 128h128l-90.496 90.496c23.104 23.168 55.104 37.504 90.496 37.504 70.656 0 128-57.344 128-128s-57.344-128-128-128z" />
<glyph unicode="&#xe97f;" glyph-name="fast-forward" d="M33.792 7.552c-20.8 11.2-33.792 32.832-33.792 56.448v512c0 23.616 13.056 45.312 33.856 56.448s46.016 9.856 65.664-3.2l384-256c17.792-11.904 28.48-31.808 28.48-53.248 0-21.376-10.688-41.344-28.544-53.248l-384-256c-19.584-13.12-44.864-14.336-65.664-3.2zM545.792 7.552c-20.8 11.2-33.792 32.832-33.792 56.448v512c0 23.616 13.056 45.312 33.856 56.448s46.016 9.856 65.664-3.2l384-256c17.792-11.904 28.48-31.808 28.48-53.248 0-21.376-10.688-41.344-28.544-53.248l-384-256c-19.584-13.12-44.864-14.336-65.664-3.2z" />
<glyph unicode="&#xe980;" glyph-name="flag-2" d="M1024 128h-512v128h-320v512h448v-128h384l-128-256 128-256zM64-192c-35.328 0-64 28.608-64 64v896c0 35.392 28.672 64 64 64 35.392 0 64-28.608 64-64v-896c0-35.392-28.608-64-64-64z" />
<glyph unicode="&#xe981;" glyph-name="flag" d="M1024 128h-512v128h-320v512h448v-128h384l-128-256 128-256zM512 640h-192v-256h192v256zM816.896 512h-176.896v-256h176.896l-64 128 64 128zM64-192c-35.328 0-64 28.608-64 64v896c0 35.392 28.672 64 64 64 35.392 0 64-28.608 64-64v-896c0-35.392-28.608-64-64-64z" />
<glyph unicode="&#xe982;" glyph-name="flask-empty" d="M967.744 135.808l-263.744 263.744v304.448c35.392 0 64 28.672 64 64s-28.608 64-64 64h-384c-35.328 0-64-28.672-64-64s28.672-64 64-64v-304.448l-263.808-263.744c-74.944-75.008-74.944-196.544 0-271.552 37.504-37.504 86.656-56.256 135.808-56.256h640c49.152 0 98.24 18.752 135.744 56.256 75.008 75.008 75.008 196.544 0 271.552zM877.248-45.248c-16.32-16.32-35.392-18.752-45.248-18.752h-640c-9.92 0-28.928 2.432-45.312 18.752-24.96 24.96-24.96 65.6 0 90.56l301.312 301.184v357.504h128v-357.504l301.248-301.184c16.32-16.32 18.752-35.392 18.752-45.248 0-9.92-2.432-28.992-18.752-45.312z" />
<glyph unicode="&#xe983;" glyph-name="flask-full" d="M967.744 135.808l-263.744 263.744v304.448c35.392 0 64 28.672 64 64s-28.608 64-64 64h-384c-35.328 0-64-28.672-64-64s28.672-64 64-64v-304.448l-263.808-263.744c-74.944-75.008-74.944-196.544 0-271.552 37.504-37.504 86.656-56.256 135.808-56.256h640c49.152 0 98.24 18.752 135.744 56.256 75.008 75.008 75.008 196.544 0 271.552zM877.248-45.248c-16.32-16.32-35.392-18.752-45.248-18.752h-640c-9.92 0-28.928 2.432-45.312 18.752-24.96 24.96-24.96 65.6 0 90.56l301.312 301.184v357.504h128v-357.504l301.248-301.184c16.32-16.32 18.752-35.392 18.752-45.248 0-9.92-2.432-28.992-18.752-45.312zM704 128l128-128h-640l128 128z" />
<glyph unicode="&#xe984;" glyph-name="floppy" d="M960-192h-64v96c0 17.6-14.336 32-32 32s-32-14.4-32-32v-96h-128v32c0 17.6-14.336 32-32 32s-32-14.4-32-32v-32h-256v32c0 17.6-14.336 32-32 32s-32-14.4-32-32v-32h-256c-35.392 0-64 28.608-64 64v896c0 35.328 28.608 64 64 64h896c35.392 0 64-28.672 64-64v-896c0-35.392-28.608-64-64-64zM448-64c0-35.392 28.608-64 64-64s64 28.608 64 64v64c0 35.392-28.608 64-64 64s-64-28.608-64-64v-64zM512 128c106.048 0 192 86.016 192 192 0 106.048-85.952 192-192 192s-192-85.952-192-192c0-105.984 85.952-192 192-192zM960 704c0 35.328-28.608 64-64 64h-768c-35.392 0-64-28.672-64-64v-64c0-35.328 28.608-64 64-64h768c35.392 0 64 28.672 64 64v64zM128 704h448v-64h-448v64zM512 448c70.656 0 128-57.344 128-128s-57.344-128-128-128-128 57.344-128 128 57.344 128 128 128zM512 256c35.392 0 64 28.672 64 64s-28.608 64-64 64-64-28.672-64-64 28.608-64 64-64z" />
<glyph unicode="&#xe985;" glyph-name="flux" d="M512-192c-282.752 0-512 229.248-512 512s229.248 512 512 512c282.752 0 512-229.248 512-512s-229.248-512-512-512zM512-64c188.096 0 343.936 135.424 376.96 313.92-125.568-98.048-306.688-90.688-422.208 24.832-75.008 75.008-196.544 75.008-271.552 0-21.952-22.016-36.736-48.192-45.824-75.904 50.944-152.32 193.152-262.848 362.624-262.848zM512 704c-188.096 0-343.936-135.424-376.96-313.92 125.568 98.048 306.688 90.688 422.208-24.832 75.008-75.008 196.544-75.008 271.488 0 22.016 22.016 36.736 48.192 45.888 75.904-50.944 152.256-193.152 262.848-362.624 262.848z" />
<glyph unicode="&#xe986;" glyph-name="folder-2" d="M832-192h-640c-106.048 0-192 85.952-192 192v640c0 106.048 85.952 192 192 192h256c83.456 0 153.728-53.632 180.224-128h203.776c105.984 0 192-85.952 192-192v-512c0-106.048-86.016-192-192-192zM832 576h-320v64c0 35.392-28.672 64-64 64h-256c-35.328 0-64-28.608-64-64v-640c0-35.392 28.672-64 64-64h64v448c0 35.392 28.672 64 64 64h576v64c0 35.392-28.608 64-64 64z" />
<glyph unicode="&#xe987;" glyph-name="folder-add-2" d="M832 704h-203.776c-26.496 74.368-96.768 128-180.224 128h-256c-106.048 0-192-85.952-192-192v-640c0-106.048 85.952-192 192-192h640c105.984 0 192 85.952 192 192v512c0 106.048-86.016 192-192 192zM736-64c-88.384 0-160 71.616-160 160s71.616 160 160 160 160-71.616 160-160-71.616-160-160-160zM896 448h-576c-35.328 0-64-28.608-64-64v-448h-64c-35.328 0-64 28.608-64 64v640c0 35.392 28.672 64 64 64h256c35.328 0 64-28.608 64-64v-64h320c35.392 0 64-28.608 64-64v-64zM768 192h-64v-64h-64v-64h64v-64h64v64h64v64h-64v64z" />
<glyph unicode="&#xe988;" glyph-name="folder-add" d="M1024 96c0-159.040-128.96-288-288-288v0h-544c-106.048 0-192 85.952-192 192v640c0 106.048 85.952 192 192 192h256c83.456 0 153.792-53.568 180.224-128h203.776c106.048 0 192-85.952 192-192v-416zM735.936-64v0c88.448 0 160.064 71.616 160.064 160v0c0 88.384-71.616 160-160 160s-160-71.616-160-160 71.616-160 159.936-160zM832 576h-320v64c0 35.328-28.672 64-64 64h-256c-35.328 0-64-28.672-64-64v-640c0-35.392 28.672-64 64-64h304.64c-30.656 45.76-48.64 100.736-48.64 160 0 159.040 128.96 288 288 288 59.264 0 114.24-17.984 160-48.64v176.64c0 35.328-28.608 64-64 64zM704 192h64v-64h64v-64h-64v-64h-64v64h-64v64h64v64z" />
<glyph unicode="&#xe989;" glyph-name="folder-duplicate-2" d="M896 11.776v372.224c0 106.048-85.952 192-192 192h-203.776c-26.432 74.368-96.768 128-180.224 128h-116.224c26.432 74.368 96.768 128 180.224 128h64c83.456 0 153.792-53.632 180.224-128h203.776c106.048 0 192-85.952 192-192v-320c0-83.52-53.632-153.792-128-180.224zM436.224 512h203.776c106.048 0 192-85.952 192-192v-320c0-106.048-85.952-192-192-192h-448c-106.048 0-192 85.952-192 192v448c0 106.048 85.952 192 192 192h64c83.456 0 153.792-53.632 180.224-128zM128 448v-448c0-35.392 28.672-64 64-64h64v256c0 35.328 28.672 64 64 64h384v64c0 35.328-28.608 64-64 64h-320v64c0 35.328-28.672 64-64 64h-64c-35.328 0-64-28.672-64-64z" />
<glyph unicode="&#xe98a;" glyph-name="folder-duplicate" d="M896 11.776v372.224c0 106.048-86.016 192-192 192h-203.776c-26.432 74.368-96.768 128-180.224 128h-116.224c26.432 74.368 96.768 128 180.224 128h64c83.456 0 153.728-53.632 180.224-128h203.776c105.984 0 192-85.952 192-192v-320c0-83.52-53.632-153.792-128-180.224zM436.224 512h203.776c105.984 0 192-85.952 192-192v-320c0-106.048-86.016-192-192-192h-448c-106.048 0-192 85.952-192 192v448c0 106.048 85.952 192 192 192h64c83.456 0 153.792-53.632 180.224-128zM128 448v-448c0-35.392 28.672-64 64-64h448c35.392 0 64 28.608 64 64v320c0 35.328-28.608 64-64 64h-320v64c0 35.328-28.672 64-64 64h-64c-35.328 0-64-28.672-64-64z" />
<glyph unicode="&#xe98b;" glyph-name="folder-remove-2" d="M832 704h-203.776c-26.432 74.368-96.768 128-180.224 128h-256c-106.048 0-192-85.952-192-192v-640c0-106.048 85.952-192 192-192h640c105.984 0 192 85.952 192 192v512c0 106.048-86.016 192-192 192zM736-64c-88.384 0-160 71.616-160 160s71.616 160 160 160 160-71.616 160-160-71.616-160-160-160zM896 448h-576c-35.328 0-64-28.608-64-64v-448h-64c-35.328 0-64 28.608-64 64v640c0 35.392 28.672 64 64 64h256c35.328 0 64-28.608 64-64v-64h320c35.392 0 64-28.608 64-64v-64zM640 64h192v64h-192v-64z" />
<glyph unicode="&#xe98c;" glyph-name="folder-remove" d="M832 704h-203.776c-26.432 74.432-96.768 128-180.224 128h-256c-106.048 0-192-85.952-192-192v-640c0-106.048 85.952-192 192-192h544c159.040 0 288 128.96 288 288v416c0 106.048-85.952 192-192 192zM736-64v0c-88.384 0-160 71.616-160 160s71.616 160 160 160 160-71.616 160-160-71.616-160-160-160zM896 335.36c-45.76 30.656-100.736 48.64-160 48.64-159.040 0-288-128.96-288-288 0-59.264 17.984-114.24 48.64-160h-304.64c-35.328 0-64 28.608-64 64v640c0 35.328 28.672 64 64 64h256c35.328 0 64-28.672 64-64v-64h320c35.392 0 64-28.672 64-64v-176.64zM640 128h192v-64h-192z" />
<glyph unicode="&#xe98d;" glyph-name="folder" d="M832-192h-640c-106.048 0-192 85.952-192 192v640c0 106.048 85.952 192 192 192h256c83.456 0 153.792-53.632 180.224-128h203.776c105.984 0 192-85.952 192-192v-512c0-106.048-86.016-192-192-192zM896 512c0 35.392-28.608 64-64 64h-320v64c0 35.392-28.672 64-64 64h-256c-35.328 0-64-28.608-64-64v-640c0-35.392 28.672-64 64-64h640c35.392 0 64 28.608 64 64v512z" />
<glyph unicode="&#xe98e;" glyph-name="fork" d="M640 192h-256c-18.112 0-34.304-7.68-45.952-19.776 64.768-30.784 109.952-95.808 109.952-172.224 0-106.048-85.952-192-192-192s-192 85.952-192 192c0 83.52 53.568 153.792 128 180.288v279.488c-74.432 26.432-128 96.704-128 180.224 0 106.048 85.952 192 192 192s192-85.952 192-192c0-83.52-53.568-153.792-128-180.224v-151.552c20.096 7.168 41.408 11.776 64 11.776h256c35.392 0 64 28.608 64 64v11.776c-74.368 26.432-128 96.704-128 180.224 0 106.048 86.016 192 192 192s192-85.952 192-192c0-83.52-53.632-153.792-128-180.224v-11.776c0-106.048-86.016-192-192-192zM768 640c35.392 0 64-28.608 64-64s-28.608-64-64-64c-35.392 0-64 28.608-64 64s28.608 64 64 64zM256 704c35.328 0 64-28.608 64-64s-28.672-64-64-64c-35.328 0-64 28.608-64 64s28.672 64 64 64zM256 64c35.328 0 64-28.608 64-64s-28.672-64-64-64c-35.328 0-64 28.608-64 64s28.672 64 64 64z" />
<glyph unicode="&#xe98f;" glyph-name="grid-2" d="M832-192h-640c-106.048 0-192 86.016-192 192v640c0 106.048 85.952 192 192 192h640c106.048 0 192-85.952 192-192v-640c0-105.984-85.952-192-192-192zM896 640c0 35.328-28.608 64-64 64h-640c-35.328 0-64-28.672-64-64v-640c0-35.392 28.672-64 64-64h640c35.392 0 64 28.608 64 64v640zM576 256h192v-192h-192v192zM640 128h64v64h-64v-64zM576 576h192v-192h-192v192zM640 448h64v64h-64v-64zM256 256h192v-192h-192v192zM320 128h64v64h-64v-64zM256 576h192v-192h-192v192zM320 448h64v64h-64v-64z" />
<glyph unicode="&#xe990;" glyph-name="grid" d="M448 64h128v128h-128v-128zM256 448h128v128h-128v-128zM448 256h128v128h-128v-128zM256 64h128v128h-128v-128zM256 256h128v128h-128v-128zM832 832h-640c-106.048 0-192-85.952-192-192v-640c0-105.984 85.952-192 192-192h640c105.984 0 192 86.016 192 192v640c0 106.048-86.016 192-192 192zM896 0c0-35.392-28.608-64-64-64h-640c-35.328 0-64 28.608-64 64v640c0 35.328 28.672 64 64 64h640c35.392 0 64-28.672 64-64v-640zM640 256h128v128h-128v-128zM640 448h128v128h-128v-128zM448 448h128v128h-128v-128zM640 64h128v128h-128v-128z" />
<glyph unicode="&#xe991;" glyph-name="headphones" d="M960 256c-3.968 0-7.296 1.536-11.072 2.24-25.792-75.584-96.64-130.24-180.928-130.24v448h-64c0 35.328-28.608 64-64 64h-256c-35.328 0-64-28.672-64-64h-64v-512c0-35.392 28.672-64 64-64 0 35.392 28.672 64 64 64h64c35.328 0 64-28.608 64-64v-64c0-35.392-28.672-64-64-64h-64c-35.328 0-64 28.608-64 64-70.656 0-128 57.344-128 128v75.392c-54.848 19.584-98.048 63.488-116.928 118.848-3.712-0.704-7.104-2.24-11.072-2.24-35.328 0-64 28.672-64 64s28.672 64 64 64c3.776 0 7.040-1.536 10.688-2.176 18.944 55.168 62.336 98.88 117.312 118.4v75.776c0 106.048 85.952 192 192 192h256c106.048 0 192-85.952 192-192v-75.776c54.976-19.584 98.304-63.296 117.376-118.4 3.584 0.64 6.784 2.176 10.624 2.176 35.392 0 64-28.672 64-64s-28.608-64-64-64zM192 384h-64v-128h64v128zM896 384h-64v-128h64v128z" />
<glyph unicode="&#xe992;" glyph-name="heart-empty" d="M948.544 324.544l-436.544-452.544-436.544 452.544c-99.968 99.968-99.968 262.080 0 362.048s262.080 99.968 362.048 0l74.496-90.56 74.496 90.496c99.968 99.968 262.080 99.968 362.048 0 99.968-99.904 99.968-262.016 0-361.984zM676.992 596.032l-164.992-180.992-164.992 180.992c-49.984 49.984-131.072 49.984-181.056 0-49.92-49.984-49.92-131.008 0-180.992l346.048-362.048 346.048 362.048c49.92 49.984 49.92 131.008 0 180.992-49.984 50.048-131.072 50.048-181.056 0z" />
<glyph unicode="&#xe993;" glyph-name="heart-full" d="M948.544 324.544l-436.544-452.544-436.544 452.544c-99.968 99.968-99.968 262.080 0 362.048s262.080 99.968 362.048 0l74.496-90.56 74.496 90.496c99.968 99.968 262.080 99.968 362.048 0 99.968-99.904 99.968-262.016 0-361.984z" />
<glyph unicode="&#xe994;" glyph-name="heart-half" d="M948.544 324.544l-436.544-452.544-436.544 452.544c-99.968 99.968-99.968 262.080 0 362.048s262.080 99.968 362.048 0l74.496-90.56 74.496 90.496c99.968 99.968 262.080 99.968 362.048 0 99.968-99.904 99.968-262.016 0-361.984zM512 52.992l346.048 362.048c49.92 49.984 49.92 131.008 0 180.992-49.984 49.984-131.072 49.984-181.056 0l-164.992-180.992v-362.048z" />
<glyph unicode="&#xe995;" glyph-name="home-2" d="M960 320h-128v-448c0-35.392-28.608-64-64-64h-128v384c0 35.392-28.608 64-64 64h-128c-35.328 0-64-28.608-64-64v-384h-128c-35.328 0-64 28.608-64 64v448h-128l-64 64 512 448 512-448-64-64z" />
<glyph unicode="&#xe996;" glyph-name="home-3" d="M960 320h-128v-448c0-35.392-28.608-64-64-64h-128v256c0 35.328-28.608 64-64 64h-128c-35.328 0-64-28.672-64-64v-256h-128c-35.328 0-64 28.608-64 64v448h-128l-64 64 512 448 512-448-64-64zM512 512c-70.656 0-128-57.344-128-128s57.344-128 128-128 128 57.344 128 128-57.344 128-128 128z" />
<glyph unicode="&#xe997;" glyph-name="home" d="M832 768h128v-277.696l-128 146.304v131.392zM896 320l-384 438.784-384-438.784h-128l448 512h128l448-512h-128zM896 237.312v-429.312h-256v320c0 35.392-28.608 64-64 64h-128c-35.328 0-64-28.608-64-64v-320h-256v429.376l384 424.32 384-424.384z" />
<glyph unicode="&#xe998;" glyph-name="icon0" d="M1024 320c0 282.752-229.248 512-512 512s-512-229.248-512-512 229.248-512 512-512h64c35.264 0 64 28.736 64 64s-28.736 64-64 64h-64c-211.968 0-384 171.904-384 384s172.032 384 384 384c212.096 0 384-171.904 384-384v-192c0-35.264-28.736-64-64-64s-64 28.736-64 64v192c0 141.312-114.752 256-256 256-141.312 0-256-114.688-256-256 0-141.248 114.688-256 256-256 48 0 92.48 14.016 130.752 36.992 13.248-92.992 92.48-164.992 189.248-164.992 105.984 0 192 86.016 192 192v192zM512 192c-70.784 0-128 57.28-128 128 0 70.784 57.216 128 128 128 70.72 0 128-57.216 128-128 0-70.72-57.28-128-128-128z" />
<glyph unicode="&#xe999;" glyph-name="image" d="M414.016 126.016c-47.552 0-121.984 188.032-158.016 112-14.976-31.616-39.936-99.008-64-152.96v-21.056c0-35.392 28.672-64 64-64h512c35.392 0 64 28.608 64 64v29.824c-36.16 81.408-83.008 216.32-128 268.16-92.032 105.984-201.984-235.968-289.984-235.968zM832 832h-640c-106.048 0-192-85.952-192-192v-640c0-105.984 85.952-192 192-192h640c105.984 0 192 86.016 192 192v640c0 106.048-86.016 192-192 192zM896 0c0-35.392-28.608-64-64-64h-640c-35.328 0-64 28.608-64 64v640c0 35.328 28.672 64 64 64h640c35.392 0 64-28.672 64-64v-640zM288 448c53.056 0 96 42.944 96 96s-42.944 96-96 96-96-42.944-96-96 42.944-96 96-96z" />
<glyph unicode="&#xe99a;" glyph-name="in" d="M832-192h-640c-106.048 0-192 85.952-192 192v128h128v-128c0-35.392 28.672-64 64-64h640c35.392 0 64 28.608 64 64v640c0 35.328-28.608 64-64 64h-640c-35.328 0-64-28.672-64-64v-128h-128v128c0 106.048 85.952 192 192 192h640c106.048 0 192-85.952 192-192v-640c0-106.048-85.952-192-192-192zM295.488 507.2c23.936 9.856 51.456 4.416 69.76-13.888l128-128c12.48-12.48 18.752-28.864 18.752-45.248s-6.272-32.768-18.752-45.248l-128-128c-18.304-18.24-45.824-23.744-69.76-13.888-23.872 9.856-39.488 33.28-39.488 59.136v63.936h-192c-35.328 0-64 28.608-64 64 0 35.328 28.672 64 64 64h192v64.064c0 25.856 15.616 49.28 39.488 59.136z" />
<glyph unicode="&#xe99b;" glyph-name="inbox-2" d="M832-192h-640c-106.048 0-192 85.952-192 192v192l220.48 220.48c7.808-12.864 16.832-25.152 27.776-36.16l58.624-58.624-178.88-189.696h192v-64c0-35.392 28.672-64 64-64h256c35.392 0 64 28.608 64 64v64h192l-178.88 189.696 58.624 58.624c11.008 11.008 19.968 23.296 27.84 36.096l220.416-220.416v-192c0-106.048-85.952-192-192-192zM557.248 338.816c-12.48-12.48-28.864-18.752-45.248-18.752s-32.768 6.272-45.248 18.752l-128 128c-18.24 18.304-23.744 45.824-13.888 69.76 9.856 23.872 33.28 39.424 59.136 39.424h64v192c0 35.328 28.672 64 64 64 35.392 0 64-28.672 64-64v-192h64c25.856 0 49.28-15.616 59.136-39.488 9.856-23.936 4.416-51.392-13.888-69.696l-128-128z" />
<glyph unicode="&#xe99c;" glyph-name="inbox" d="M832 832c106.048 0 192-85.952 192-192v-640c0-106.048-85.952-192-192-192h-640c-106.048 0-192 85.952-192 192v640c0 106.048 85.952 192 192 192h128v-128h-128c-35.328 0-64-28.672-64-64v-640c0-35.392 28.672-64 64-64h640c35.392 0 64 28.608 64 64v640c0 35.328-28.608 64-64 64h-128v128h128zM320 192h384l128-192h-640zM466.752 338.752l-128 128c-18.304 18.304-23.744 45.824-13.888 69.76 9.856 23.872 33.28 39.488 59.136 39.488h64v192c0 35.392 28.672 64 64 64 35.392 0 64-28.608 64-64v-192h64c25.856 0 49.28-15.616 59.136-39.488 9.856-23.936 4.352-51.456-13.888-69.76l-128-128c-12.48-12.48-28.864-18.752-45.248-18.752s-32.768 6.272-45.248 18.752z" />
<glyph unicode="&#xe99d;" glyph-name="infinity" d="M960 320c0-141.376-114.624-256-256-256s-256 114.624-256 256c0 70.656-57.344 128-128 128s-128-57.344-128-128 57.344-128 128-128c7.808 0 15.36 0.96 22.784 2.304 14.656-42.048 36.224-80.32 63.616-114.304-27.072-9.728-55.872-16-86.4-16-141.376 0-256 114.624-256 256s114.624 256 256 256 256-114.624 256-256c0-70.656 57.344-128 128-128s128 57.344 128 128v0c0 70.656-57.344 128-128 128-7.808 0-15.36-0.96-22.784-2.304-14.656 42.048-36.16 80.32-63.616 114.304 27.072 9.728 55.872 16 86.4 16 141.376 0 256-114.624 256-256v0z" />
<glyph unicode="&#xe99e;" glyph-name="intersect" d="M960-192h-640c-35.392 0-64 28.608-64 64v192h-192c-35.392 0-64 28.608-64 64v640c0 35.392 28.608 64 64 64h640c35.392 0 64-28.608 64-64v-192h192c35.392 0 64-28.608 64-64v-640c0-35.392-28.608-64-64-64zM640 704h-512v-512h128v320c0 35.392 28.608 64 64 64h320v128zM896 448h-128v-320c0-35.392-28.608-64-64-64h-320v-128h512v512z" />
<glyph unicode="&#xe99f;" glyph-name="key-2" d="M1024-192h-192v128h-128v128h-128v64h-128v91.008c-39.232-17.216-82.432-27.008-128-27.008-176.704 0-320 143.232-320 320s143.296 320 320 320 320-143.232 320-320c0-45.568-9.856-88.768-27.008-128h91.008v-64l320-256v-256zM256 704c-70.656 0-128-57.344-128-128s57.344-128 128-128 128 57.344 128 128-57.344 128-128 128z" />
<glyph unicode="&#xe9a0;" glyph-name="key" d="M896-192h-64v128h-128v128h-128v64h-128v91.008c-39.232-17.216-82.432-27.008-128-27.008-176.704 0-320 143.232-320 320s143.296 320 320 320 320-143.232 320-320c0-45.568-9.856-88.768-27.008-128h91.008v-128l320-256v-192h-128zM256 704c-70.656 0-128-57.344-128-128s57.344-128 128-128 128 57.344 128 128-57.344 128-128 128z" />
<glyph unicode="&#xe9a1;" glyph-name="keys" d="M832-192h-64v384c35.392 0 64 28.608 64 64v576c106.048 0 192-85.952 192-192v-640c0-105.984-85.952-192-192-192zM704 192v-384h-384v384c35.392 0 64 28.608 64 64v576h256v-576c0-35.392 28.608-64 64-64zM256 192v-384h-64c-106.048 0-192 86.016-192 192v640c0 106.048 85.952 192 192 192v-576c0-35.392 28.608-64 64-64z" />
</font>
</defs>
</svg>
